Скачать через торрент музыку Напряги извилины Get Smart бесплатно без регистрации torrent

Если у вас наблюдаются проблемы со скриншотами, переходом по ссылками, скачиванием торрентов - проблемы в блокировщике рекламы AdBlock. #хорошегоДня!


Статистика раздачи
Размер:  232 MB   |    Зарегистрирован:  6 лет 2 месяца   |    .torrent скачан:  38 раз   |   
Раздают:  1  
   
Загрузка...
 
Автор Сообщение

Galfimbul

avatar Galfimbul


Напряги извилины / Get Smart

Жанр: Score || Композитор: Trevor Rabin || Год выпуска: 2008 || Страна: USA || Аудио кодек: FLAC || Тип рипа: tracks+.cue || Битрейт аудио: lossless
Продолжительность: 00:42:16 || Источник: what.cd

01 - Smart Dreams (01:52)
02 - Get Smart Theme (01:28)
03 - Cake Factory (03:01)
04 - Theme (Look One) (01:49)
05 - Max Denied (02:29)
06 - Max Takes a Bow (00:54)
07 - Dropping Like Flies (00:08)
08 - Theme (Look Two) (02:16)
09 - Agent 23 (00:34)
10 - Max Ejects (01:54)
11 - Skydiving (02:01)
12 - Laser Hallway (04:04)
13 - Entering Moscow (01:22)
14 - Rooftop Fight (03:07)
15 - Max Calls 99 (05:01)
16 - Theme (Look Three) (01:13)
17 - The Big Chase (04:59)
18 - Wish We Had More Time (01:47)
19 - Smart Exit (00:57)
20 - Theme (Look Four) (01:18)
 
Exact Audio Copy V0.99 prebeta 5 from 4. May 2009

EAC extraction logfile from 28. August 2010, 2:19

Trevor Rabin / Get Smart

Used drive : TSSTcorpCDDVDW SH-S223C Adapter: 3 ID: 0

Read mode : SecureUtilize accurate stream : YesDefeat audio cache : YesMake use of C2 pointers : No

Read offset correction : 697Overread into Lead-In and Lead-Out : NoFill up missing offset samples with silence : YesDelete leading and trailing silent blocks : NoNull samples used in CRC calculations : YesUsed interface : Installed external ASPI interfaceGap handling : Appended to previous track

Used output format : User Defined EncoderSelected bitrate : 320 kBit/sQuality : HighAdd ID3 tag : NoCommand line compressor : C:\Program Files (x86)\Exact Audio Copy\flac.exeAdditional command line options : -5 -V -T "artist=%a" -T "title=%t" -T "album=%g" -T "date=%y" -T "tracknumber=%n" -T "genre=%m" -T "comment=%e" %s -o %d

TOC of the extracted CD

Track | Start | Length | Start sector | End sector --------------------------------------------------------- 1 | 0:00.00 | 1:52.30 | 0 | 8429 2 | 1:52.30 | 1:28.19 | 8430 | 15048 3 | 3:20.49 | 3:00.66 | 15049 | 28614 4 | 6:21.40 | 1:48.63 | 28615 | 36777 5 | 8:10.28 | 2:29.22 | 36778 | 47974 6 | 10:39.50 | 0:54.21 | 47975 | 52045 7 | 11:33.71 | 0:07.59 | 52046 | 52629 8 | 11:41.55 | 2:15.63 | 52630 | 62817 9 | 13:57.43 | 0:34.32 | 62818 | 65399 10 | 14:32.00 | 1:53.48 | 65400 | 73922 11 | 16:25.48 | 2:01.35 | 73923 | 83032 12 | 18:27.08 | 4:04.28 | 83033 | 101360 13 | 22:31.36 | 1:22.06 | 101361 | 107516 14 | 23:53.42 | 3:07.37 | 107517 | 121578 15 | 27:01.04 | 5:01.35 | 121579 | 144188 16 | 32:02.39 | 1:13.23 | 144189 | 149686 17 | 33:15.62 | 4:58.74 | 149687 | 172110 18 | 38:14.61 | 1:46.50 | 172111 | 180110 19 | 40:01.36 | 0:56.67 | 180111 | 184377 20 | 40:58.28 | 1:17.53 | 184378 | 190205

Track 1

Filename E:\what.cd\eac\Trevor Rabin - 2008 -Get Smart\01 - Smart Dreams.wav

Pre-gap length 0:00:02.00

Peak level 97.7 % Track quality 100.0 % Test CRC 01110875 Copy CRC 01110875 Cannot be verified as accurate (confidence 4) [E81748BB], AccurateRip returned [0C19C7E0] Copy OK

Track 2

Filename E:\what.cd\eac\Trevor Rabin - 2008 -Get Smart\02 - Get Smart Theme.wav

Pre-gap length 0:00:02.93

Peak level 97.7 % Track quality 100.0 % Test CRC 1E7E43DA Copy CRC 1E7E43DA Cannot be verified as accurate (confidence 4) [207E6265], AccurateRip returned [722B3837] Copy OK

Track 3

Filename E:\what.cd\eac\Trevor Rabin - 2008 -Get Smart\03 - Cake Factory.wav

Pre-gap length 0:00:00.64

Peak level 97.7 % Track quality 100.0 % Test CRC 623C0B54 Copy CRC 623C0B54 Cannot be verified as accurate (confidence 4) [3EDAA69F], AccurateRip returned [8818A588] Copy OK

Track 4

Filename E:\what.cd\eac\Trevor Rabin - 2008 -Get Smart\04 - Theme (Look One).wav

Pre-gap length 0:00:02.30

Peak level 98.8 % Track quality 100.0 % Test CRC 5769D6B9 Copy CRC 5769D6B9 Cannot be verified as accurate (confidence 4) [E276C9A7], AccurateRip returned [84E15142] Copy OK

Track 5

Filename E:\what.cd\eac\Trevor Rabin - 2008 -Get Smart\05 - Max Denied.wav

Pre-gap length 0:00:01.60

Peak level 97.7 % Track quality 100.0 % Test CRC 0C59FFC6 Copy CRC 0C59FFC6 Cannot be verified as accurate (confidence 4) [EAFFC3DD], AccurateRip returned [759D0813] Copy OK

Track 6

Filename E:\what.cd\eac\Trevor Rabin - 2008 -Get Smart\06 - Max Takes a Bow.wav

Pre-gap length 0:00:02.24

Peak level 85.0 % Track quality 100.0 % Test CRC 1A1253A9 Copy CRC 1A1253A9 Cannot be verified as accurate (confidence 4) [F3CDB558], AccurateRip returned [9DE2CA44] Copy OK

Track 7

Filename E:\what.cd\eac\Trevor Rabin - 2008 -Get Smart\07 - Dropping Like Flies.wav

Pre-gap length 0:00:02.05

Peak level 80.8 % Track quality 100.0 % Test CRC A964A236 Copy CRC A964A236 Cannot be verified as accurate (confidence 4) [210837D8], AccurateRip returned [36EAAFB7] Copy OK

Track 8

Filename E:\what.cd\eac\Trevor Rabin - 2008 -Get Smart\08 - Theme (Look Two).wav

Peak level 97.7 % Track quality 100.0 % Test CRC A673D3F6 Copy CRC A673D3F6 Cannot be verified as accurate (confidence 4) [13E14488], AccurateRip returned [F8D93631] Copy OK

Track 9

Filename E:\what.cd\eac\Trevor Rabin - 2008 -Get Smart\09 - Agent 23.wav

Pre-gap length 0:00:00.70

Peak level 94.4 % Track quality 100.0 % Test CRC 66ADA05F Copy CRC 66ADA05F Cannot be verified as accurate (confidence 4) [754470CF], AccurateRip returned [8E1AA65B] Copy OK

Track 10

Filename E:\what.cd\eac\Trevor Rabin - 2008 -Get Smart\10 - Max Ejects.wav

Pre-gap length 0:00:01.93

Peak level 97.7 % Track quality 100.0 % Test CRC 09416C31 Copy CRC 09416C31 Cannot be verified as accurate (confidence 4) [E6D588FF], AccurateRip returned [DF68E14F] Copy OK

Track 11

Filename E:\what.cd\eac\Trevor Rabin - 2008 -Get Smart\11 - Skydiving.wav

Pre-gap length 0:00:01.69

Peak level 98.8 % Track quality 100.0 % Test CRC A10AA71C Copy CRC A10AA71C Cannot be verified as accurate (confidence 4) [405D9C2B], AccurateRip returned [2BC73355] Copy OK

Track 12

Filename E:\what.cd\eac\Trevor Rabin - 2008 -Get Smart\12 - Laser Hallway.wav

Peak level 97.7 % Track quality 100.0 % Test CRC 4CFD7B6D Copy CRC 4CFD7B6D Cannot be verified as accurate (confidence 4) [D6F012AC], AccurateRip returned [F635DFB2] Copy OK

Track 13

Filename E:\what.cd\eac\Trevor Rabin - 2008 -Get Smart\13 - Entering Moscow.wav

Pre-gap length 0:00:02.20

Peak level 97.7 % Track quality 100.0 % Test CRC B0A83862 Copy CRC B0A83862 Cannot be verified as accurate (confidence 4) [BEA52041], AccurateRip returned [CFD468BD] Copy OK

Track 14

Filename E:\what.cd\eac\Trevor Rabin - 2008 -Get Smart\14 - Rooftop Fight.wav

Pre-gap length 0:00:02.52

Peak level 97.7 % Track quality 100.0 % Test CRC D8439D2D Copy CRC D8439D2D Cannot be verified as accurate (confidence 4) [6D61BC99], AccurateRip returned [61552A6E] Copy OK

Track 15

Filename E:\what.cd\eac\Trevor Rabin - 2008 -Get Smart\15 - Max Calls 99.wav

Pre-gap length 0:00:02.60

Peak level 97.7 % Track quality 100.0 % Test CRC BE392501 Copy CRC BE392501 Cannot be verified as accurate (confidence 4) [538EF5F6], AccurateRip returned [716A24CB] Copy OK

Track 16

Filename E:\what.cd\eac\Trevor Rabin - 2008 -Get Smart\16 - Theme (Look Three).wav

Pre-gap length 0:00:02.46

Peak level 97.7 % Track quality 100.0 % Test CRC A372195F Copy CRC A372195F Cannot be verified as accurate (confidence 4) [58ECFC57], AccurateRip returned [77FEB411] Copy OK

Track 17

Filename E:\what.cd\eac\Trevor Rabin - 2008 -Get Smart\17 - The Big Chase.wav

Pre-gap length 0:00:01.73

Peak level 97.7 % Track quality 100.0 % Test CRC 835811AB Copy CRC 835811AB Cannot be verified as accurate (confidence 4) [F698C6C9], AccurateRip returned [F43ABC6B] Copy OK

Track 18

Filename E:\what.cd\eac\Trevor Rabin - 2008 -Get Smart\18 - Wish We Had More Time.wav

Pre-gap length 0:00:01.76

Peak level 95.1 % Track quality 100.0 % Test CRC 5DA9970F Copy CRC 5DA9970F Cannot be verified as accurate (confidence 4) [6599DBD3], AccurateRip returned [F191A21C] Copy OK

Track 19

Filename E:\what.cd\eac\Trevor Rabin - 2008 -Get Smart\19 - Smart Exit.wav

Pre-gap length 0:00:01.41

Peak level 97.7 % Track quality 100.0 % Test CRC FFB72FD4 Copy CRC FFB72FD4 Cannot be verified as accurate (confidence 3) [2DBD0E1B], AccurateRip returned [F563E417] Copy OK

Track 20

Filename E:\what.cd\eac\Trevor Rabin - 2008 -Get Smart\20 - Theme (Look Four).wav

Pre-gap length 0:00:00.66

Peak level 97.7 % Track quality 99.8 % Test CRC 2AA11852 Copy CRC 2AA11852 Cannot be verified as accurate (confidence 4) [46B189DD], AccurateRip returned [3803A05E] Copy OK

No tracks could be verified as accurateYou may have a different pressing from the one(s) in the database

No errors occurred

End of status report
 
REM GENRE SoundtrackREM DATE 2008REM DISCID 1409E814REM COMMENT "ExactAudioCopy v0.99pb5"PERFORMER "Trevor Rabin"TITLE "Get Smart"FILE "01 - Smart Dreams.wav" WAVE TRACK 01 AUDIO TITLE "Smart Dreams" PERFORMER "Trevor Rabin" INDEX 01 00:00:00 TRACK 02 AUDIO TITLE "Get Smart Theme" PERFORMER "Trevor Rabin" INDEX 00 01:49:35FILE "02 - Get Smart Theme.wav" WAVE INDEX 01 00:00:00 TRACK 03 AUDIO TITLE "Cake Factory" PERFORMER "Trevor Rabin" INDEX 00 01:27:46FILE "03 - Cake Factory.wav" WAVE INDEX 01 00:00:00 TRACK 04 AUDIO TITLE "Theme (Look One)" PERFORMER "Trevor Rabin" INDEX 00 02:58:43FILE "04 - Theme (Look One).wav" WAVE INDEX 01 00:00:00 TRACK 05 AUDIO TITLE "Max Denied" PERFORMER "Trevor Rabin" INDEX 00 01:47:18FILE "05 - Max Denied.wav" WAVE INDEX 01 00:00:00 TRACK 06 AUDIO TITLE "Max Takes a Bow" PERFORMER "Trevor Rabin" INDEX 00 02:27:04FILE "06 - Max Takes a Bow.wav" WAVE INDEX 01 00:00:00 TRACK 07 AUDIO TITLE "Dropping Like Flies" PERFORMER "Trevor Rabin" INDEX 00 00:52:17FILE "07 - Dropping Like Flies.wav" WAVE INDEX 01 00:00:00FILE "08 - Theme (Look Two).wav" WAVE TRACK 08 AUDIO TITLE "Theme (Look Two)" PERFORMER "Trevor Rabin" INDEX 01 00:00:00 TRACK 09 AUDIO TITLE "Agent 23" PERFORMER "Trevor Rabin" INDEX 00 02:15:10FILE "09 - Agent 23.wav" WAVE INDEX 01 00:00:00 TRACK 10 AUDIO TITLE "Max Ejects" PERFORMER "Trevor Rabin" INDEX 00 00:32:37FILE "10 - Max Ejects.wav" WAVE INDEX 01 00:00:00 TRACK 11 AUDIO TITLE "Skydiving" PERFORMER "Trevor Rabin" INDEX 00 01:51:71FILE "11 - Skydiving.wav" WAVE INDEX 01 00:00:00FILE "12 - Laser Hallway.wav" WAVE TRACK 12 AUDIO TITLE "Laser Hallway" PERFORMER "Trevor Rabin" INDEX 01 00:00:00 TRACK 13 AUDIO TITLE "Entering Moscow" PERFORMER "Trevor Rabin" INDEX 00 04:02:13FILE "13 - Entering Moscow.wav" WAVE INDEX 01 00:00:00 TRACK 14 AUDIO TITLE "Rooftop Fight" PERFORMER "Trevor Rabin" INDEX 00 01:19:42FILE "14 - Rooftop Fight.wav" WAVE INDEX 01 00:00:00 TRACK 15 AUDIO TITLE "Max Calls 99" PERFORMER "Trevor Rabin" INDEX 00 03:04:67FILE "15 - Max Calls 99.wav" WAVE INDEX 01 00:00:00 TRACK 16 AUDIO TITLE "Theme (Look Three)" PERFORMER "Trevor Rabin" INDEX 00 04:59:00FILE "16 - Theme (Look Three).wav" WAVE INDEX 01 00:00:00 TRACK 17 AUDIO TITLE "The Big Chase" PERFORMER "Trevor Rabin" INDEX 00 01:11:43FILE "17 - The Big Chase.wav" WAVE INDEX 01 00:00:00 TRACK 18 AUDIO TITLE "Wish We Had More Time" PERFORMER "Trevor Rabin" INDEX 00 04:57:17FILE "18 - Wish We Had More Time.wav" WAVE INDEX 01 00:00:00 TRACK 19 AUDIO TITLE "Smart Exit" PERFORMER "Trevor Rabin" INDEX 00 01:45:19FILE "19 - Smart Exit.wav" WAVE INDEX 01 00:00:00 TRACK 20 AUDIO TITLE "Theme (Look Four)" PERFORMER "Trevor Rabin" INDEX 00 00:56:17FILE "20 - Theme (Look Four).wav" WAVE INDEX 01 00:00:00



Трекер:  [ 08-Июл-2011 18:14 ]

  

Скачать .torrent

Размер .torrent файла 19 KB


Размер: 232 MB
Хэш (hash) релиза: 932ee9c81058031c226a6f781a2d63024ac4e860

Еще никто не оставлял запись к записи скачать торрент Напряги извилины Get Smart . Будь первым!

!Обратная связь