Скачать через торрент музыку John Williams - Greatest Hits 1969–1999 - 1999 бесплатно без регистрации torrent

Если у вас наблюдаются проблемы со скриншотами, переходом по ссылками, скачиванием торрентов - проблемы в блокировщике рекламы AdBlock. #хорошегоДня!


Статистика раздачи
Размер:  663 MB   |    Зарегистрирован:  6 лет 7 месяцев   |    .torrent скачан:  64 раза   |   
Раздают:  1  
   
Загрузка...
 
Автор Сообщение

FRANKS

avatar FRANKS


John Williams - Greatest Hits 1969–1999


Жанр: Score
Год выпуска диска: 1999
Производитель диска: USA
Аудио кодек: FLAC
Тип рипа: image+.cue
Битрейт аудио: lossless
Продолжительность: 2:19:57
CD 1 (1:06:11)
01. Star Wars - Main Title (5:46)
02. E.T. The Extra-Terrestrial - Flying Theme (3:43)
03. Superman - Main Title (4:28)
04. Indiana Jones and the Temple of Doom - Parade of the Slave Children (4:54)
05. Sugarland Express - Theme (3:39)
06. Jaws - Theme (2:55)
07. Olympic Fanfare and Theme (4:30)
08. Star Wars: Return of the Jedi - Luke and Leia (5:03)
09. The Reivers - Main Title (5:15)
10. Star Wars: The Empire Strikes Back - The Imperial March (3:08)
11. Indiana Jones and the Last Crusade - Scherzo for Motorcycle and Orchestra (2:51)
12. Empire of the Sun - Cadillac of the Skies (5:00)
13. Indiana Jones and the Raiders of the Lost Ark - The Raiders March (5:13)
14. Close Encounters of the Third Kind - Suite (9:46)

CD 2 (1:13:46)
01. Saving Private Ryan - Hymn to the Fallen (6:12)
02. Jurassic Park - Theme (5:33)
03. Schindler's List - Theme (3:35)
04. Hook - Flight to Neverland (4:45)
05. Seven Years in Tibet - Seven Years in Tibet (7:11)
06. JFK - Prologue (4:02)
07. Stepmom - The Days Between (6:28)
08. 1941 - March (4:15)
09. Home Alone - Main Title (Somewhere in My Memory) (4:58)
10. Summon the Heroes (6:17)
11. Rosewood - Look Down, Lord (4:15)
12. Far and Away - Theme (5:37)
13. Born on the Fourth of July - Theme (6:22)
14. Star Wars: The Phantom Menace - Duel of the Fates (4:15)
Exact Audio Copy V0.99 prebeta 5 from 4. May 2009

EAC extraction logfile from 10. July 2009, 14:53

John Williams / Greatest Hits 1969 - 1999

Used drive : ASUS DRW-2014L1T Adapter: 3 ID: 0

Read mode : Secure
Utilize accurate stream : Yes
Defeat audio cache : Yes
Make use of C2 pointers : No

Read offset correction : 6
Overread into Lead-In and Lead-Out : No
Fill up missing offset samples with silence : Yes
Delete leading and trailing silent blocks : No
Null samples used in CRC calculations : Yes
Used interface : Native Win32 interface for Win NT & 2000

Used output format : User Defined Encoder
Selected bitrate : 128 kBit/s
Quality : High
Add ID3 tag : No
Command line compressor : C:\Program Files\Exact Audio Copy\Flac\flac.exe
Additional command line options : -8 -V %s

TOC of the extracted CD

Track | Start | Length | Start sector | End sector
---------------------------------------------------------
1 | 0:00.00 | 5:46.17 | 0 | 25966
2 | 5:46.17 | 3:42.68 | 25967 | 42684
3 | 9:29.10 | 4:27.40 | 42685 | 62749
4 | 13:56.50 | 4:54.32 | 62750 | 84831
5 | 18:51.07 | 3:38.40 | 84832 | 101221
6 | 22:29.47 | 2:54.38 | 101222 | 114309
7 | 25:24.10 | 4:30.27 | 114310 | 134586
8 | 29:54.37 | 5:03.23 | 134587 | 157334
9 | 34:57.60 | 5:15.02 | 157335 | 180961
10 | 40:12.62 | 3:07.60 | 180962 | 195046
11 | 43:20.47 | 2:50.58 | 195047 | 207854
12 | 46:11.30 | 5:00.05 | 207855 | 230359
13 | 51:11.35 | 5:13.35 | 230360 | 253869
14 | 56:24.70 | 9:46.10 | 253870 | 297829

Range status and errors

Selected range

Filename C:\Greatest Hits 1969 - 1999.wav

Peak level 99.8 %
Range quality 100.0 %
Test CRC 759DC5C2
Copy CRC 759DC5C2
Copy OK

No errors occurred

End of status report
Exact Audio Copy V0.99 prebeta 5 from 4. May 2009

EAC extraction logfile from 10. July 2009, 16:44

John Williams / Greatest Hits 1969 - 1999

Used drive : ASUS DRW-2014L1T Adapter: 3 ID: 0

Read mode : Secure
Utilize accurate stream : Yes
Defeat audio cache : Yes
Make use of C2 pointers : No

Read offset correction : 6
Overread into Lead-In and Lead-Out : No
Fill up missing offset samples with silence : Yes
Delete leading and trailing silent blocks : No
Null samples used in CRC calculations : Yes
Used interface : Native Win32 interface for Win NT & 2000

Used output format : User Defined Encoder
Selected bitrate : 128 kBit/s
Quality : High
Add ID3 tag : No
Command line compressor : C:\Program Files\Exact Audio Copy\Flac\flac.exe
Additional command line options : -8 -V %s

TOC of the extracted CD

Track | Start | Length | Start sector | End sector
---------------------------------------------------------
1 | 0:00.00 | 6:12.02 | 0 | 27901
2 | 6:12.02 | 5:32.68 | 27902 | 52869
3 | 11:44.70 | 3:35.25 | 52870 | 69019
4 | 15:20.20 | 4:45.32 | 69020 | 90426
5 | 20:05.52 | 7:11.23 | 90427 | 122774
6 | 27:17.00 | 4:02.22 | 122775 | 140946
7 | 31:19.22 | 6:27.68 | 140947 | 170039
8 | 37:47.15 | 4:15.00 | 170040 | 189164
9 | 42:02.15 | 4:57.47 | 189165 | 211486
10 | 46:59.62 | 6:17.18 | 211487 | 239779
11 | 53:17.05 | 4:15.20 | 239780 | 258924
12 | 57:32.25 | 5:37.05 | 258925 | 284204
13 | 63:09.30 | 6:22.37 | 284205 | 312891
14 | 69:31.67 | 4:14.53 | 312892 | 331994

Range status and errors

Selected range

Filename C:\Greatest Hits 1969 - 1999.wav

Peak level 99.8 %
Range quality 100.0 %
Test CRC C0EDB843
Copy CRC C0EDB843
Copy OK

No errors occurred

End of status report


Трекер:  [ 30-Янв-2011 07:56 ]

  

Скачать .torrent

Размер .torrent файла 14 KB


Размер: 663 MB
Хэш (hash) релиза: c905b68ec47b90d1a0940c508f11ee330274705d

Торренты, похожие на John Williams - Greatest Hits 1969–1999 - 1999 скачать торрент

Форум Название Автор Размер S L Добавлен
Саундтреки к фильмам и мультфильмам (mp3) ·· (Score / Film's) Джон Уильямс - Лучшие хиты 1969-1999 / John Williams - Greatest Hits 1969–1999 (2 CD) - 1999, MP3 (tracks), 320 kbps Phoenix 337758356322 MB 0 0 1292268235

22:23

13-Дек-10

bot

Топик был перенесен в форум Саундтреки к фильмам и мультфильмам (lossless)

Перенес FRANKS

Хотите добавить комментарий к записи скачать торрент John Williams - Greatest Hits 1969–1999 - 1999

!Обратная связь