Скачать через торрент Assassin’s Creed IV: Black Flag Official Trailer Игра для ПК (PC) бесплатно torrent

Если у вас наблюдаются проблемы со скриншотами, переходом по ссылками, скачиванием торрентов - проблемы в блокировщике рекламы AdBlock. #хорошегоДня!


Статистика раздачи
Размер:  30 MB   |    Зарегистрирован:  4 года 7 месяцев   |    .torrent скачан:  399 раз   |   
Раздают:  1  
   
Загрузка...
 
Автор Сообщение

L


Assassin’s Creed IV: Black Flag Official Trailer
Год выпуска: 2013
Страна: Франция, США
Жанр: Action / Adventure
Продолжительность: 2 мин
Перевод: Отсутствует
Субтитры: нет
Описание: Пока об Assassin's Creed 4 Black Flag не известно ничего, кроме слухов и тематики игры. Ubisoft лишь подтвердила существование проекта. Известно, что проект будет посвящен пиратам, и первые платформы игры.
Слухи сообщают, что место действия Assassin's Creed 4 Black Flag - карибский бассейн: Куба, Ямайка, Багамские острова, побережье Флориды. Главный герой - Эдвард Кенуэй (Edward Kenway), дед Коннора Кенуэя из Assassin's Creed 3, известный, как капер, ассассин, и время от времени - как пират. Действие происходит в 18 веке.
Качество: HD
Видео кодек: mp42
Аудио кодек: AAC
Видео: MPEG4 Video (mp42), 1280х720, 24.000 fps, 4 288 Kbps
Аудио: AAC 44.1 KHz stereo 201 Kbps
Формат : MPEG-4
Профиль формата : Base Media / Version 2
Идентификатор кодека : mp42
Размер файла : 29.9 MiB
Продолжительность : 2mn 0s
Общий поток : 2 079 Kbps
Дата кодирования : UTC 2013-03-01 00:54:21
Дата пометки : UTC 2013-03-01 00:54:21
gsst : 0
gstd : 120951
gssd : BA7CE0C48MM1362245335059245
gshh : r5---sn-j5caxoxu-pn2z.c.youtube.com

Video
Идентификатор : 1
Формат : AVC
Формат/Информация : Advanced Video Codec
Профиль формата : <a href="mailto:High@L3.1" class="postLink">High@L3.1</a>
Параметр CABAC формата : Yes
Параметр ReFrames формата : 1 frame
Идентификатор кодека : avc1
Идентификатор кодека/Информация : Advanced Video Coding
Продолжительность : 2mn 0s
Вид битрейта : Variable
Битрейт : 1 884 Kbps
Максимальный битрейт : 4 288 Kbps
Ширина : 1 280 pixels
Высота : 720 pixels
Соотношение сторон : 16:9
Режим частоты кадров : Constant
Частота кадров : 24.000 fps
Цветовое пространство : YUV
Подвыборка цветности : 4:2:0
Битовая глубина : 8 bits
Тип развёртки : Progressive
Бит/(Пиксели*Кадры) : 0.085
Размер потока : 27.1 MiB (91%)
Дата пометки : UTC 2013-03-01 00:54:24

Audio
Идентификатор : 2
Формат : AAC
Формат/Информация : Advanced Audio Codec
Профиль формата : LC
Идентификатор кодека : 40
Продолжительность : 2mn 0s
Вид битрейта : Variable
Битрейт : 192 Kbps
Максимальный битрейт : 201 Kbps
Канал(ы) : 2 channels
Расположение каналов : Front: L R
Частота : 44.1 KHz
Метод сжатия : Lossy
Размер потока : 2.77 MiB (9%)
Заголовок : IsoMedia File Produced by Google, 5-11-2011
Дата кодирования : UTC 2013-03-01 00:54:23
Дата пометки : UTC 2013-03-01 00:54:24


Трекер:  [ 03-Мар-2013 11:11 ]

  

Скачать .torrent

Размер .torrent файла 19 KB


Размер: 30 MB
Хэш (hash) релиза: a602dce6ab78c0f78d04d7c6726c67f7a5512cd6
Подписка на обновления:

Еще никто не оставлял запись к записи скачать торрент Assassin’s Creed IV: Black Flag Official Trailer . Будь первым!

!Обратная связь