Скачать через торрент музыку Заложница бесплатно без регистрации torrent

Если у вас наблюдаются проблемы со скриншотами, переходом по ссылками, скачиванием торрентов - проблемы в блокировщике рекламы AdBlock. #хорошегоДня!


Статистика раздачи
Размер:  261 MB   |    Зарегистрирован:  6 лет 10 месяцев   |    .torrent скачан:  80 раз   |   
Раздают:  1  
   
Загрузка...
 
Автор Сообщение

FRANKS

avatar FRANKS


Заложница (Похищенная) / Taken (by Nathaniel Mechaly)


Жанр: Score
Год выпуска диска: 2008
Производитель диска: USA
Аудио кодек: FLAC
Тип рипа: tracks+.cue
Битрейт аудио: lossless
Продолжительность: 0:46:53
1. Opening
2. Change - Joy Denalane feat. Lupe Fiasco
3. Permission to Go to Paris
4. To the Airport
5. The Concert
6. There's Somebody Here
7. Pursuit at Roissy
8. On The Rooftop
9. 96 Hours
10. The Construction Site
11. Pursuit of the Construction Site
12. Saving Amanda
13. Escape From St Clair
14. Tick Tick, Boom - The Hives
15. Hotel Camelia
16. The Auction
17. Pursuit by the Seine
18. On The Boat
19. The Last Fight
20. The Dragster Wave - Ghinzu
 
Exact Audio Copy V0.99 prebeta 3 from 28. July 2007

EAC extraction logfile from 19. January 2010, 12:48

Various / Taken - Original Soundtrack

Used drive : PLEXTOR CD-R PREMIUM2 Adapter: 0 ID: 1

Read mode : SecureUtilize accurate stream : YesDefeat audio cache : YesMake use of C2 pointers : No

Read offset correction : 30Overread into Lead-In and Lead-Out : YesFill up missing offset samples with silence : YesDelete leading and trailing silent blocks : NoNull samples used in CRC calculations : YesUsed interface : Native Win32 interface for Win NT & 2000Gap handling : Appended to previous track

Used output format : User Defined EncoderSelected bitrate : 192 kBit/sQuality : HighAdd ID3 tag : NoCommand line compressor : C:\Program Files\FLAC\flac.exeAdditional command line options : -8 -T "artist=%a" -T "title=%t" -T "album=%g" -T "date=%y" -T "tracknumber=%n" -T "genre=%m" %s

TOC of the extracted CD

Track | Start | Length | Start sector | End sector --------------------------------------------------------- 1 | 0:00.01 | 0:56.50 | 1 | 4250 2 | 0:56.51 | 4:18.15 | 4251 | 23615 3 | 5:14.66 | 1:13.08 | 23616 | 29098 4 | 6:27.74 | 1:12.58 | 29099 | 34556 5 | 7:40.57 | 0:55.48 | 34557 | 38729 6 | 8:36.30 | 3:25.19 | 38730 | 54123 7 | 12:01.49 | 1:09.46 | 54124 | 59344 8 | 13:11.20 | 1:44.00 | 59345 | 67144 9 | 14:55.20 | 6:04.22 | 67145 | 94466 10 | 20:59.42 | 2:07.03 | 94467 | 103994 11 | 23:06.45 | 1:28.24 | 103995 | 110618 12 | 24:34.69 | 1:15.64 | 110619 | 116307 13 | 25:50.58 | 1:41.06 | 116308 | 123888 14 | 27:31.64 | 3:28.08 | 123889 | 139496 15 | 30:59.72 | 1:41.45 | 139497 | 147116 16 | 32:41.42 | 1:41.65 | 147117 | 154756 17 | 34:23.32 | 3:15.37 | 154757 | 169418 18 | 37:38.69 | 1:04.65 | 169419 | 174283 19 | 38:43.59 | 1:54.21 | 174284 | 182854 20 | 40:38.05 | 6:14.53 | 182855 | 210957

Track 1

Filename E:\Musikk\V\Various\2008 - Taken - Original Soundtrack\01 - Opening.wav

Pre-gap length 0:00:02.01

Peak level 88.7 % Track quality 100.0 % Test CRC DD6041CF Copy CRC DD6041CF Accurately ripped (confidence 1) [BAEA1C81] Copy OK

Track 2

Filename E:\Musikk\V\Various\2008 - Taken - Original Soundtrack\02 - Change.wav

Peak level 100.0 % Track quality 100.0 % Test CRC 99821442 Copy CRC 99821442 Accurately ripped (confidence 1) [D10BB207] Copy OK

Track 3

Filename E:\Musikk\V\Various\2008 - Taken - Original Soundtrack\03 - Permission to Go to Paris.wav

Peak level 90.2 % Track quality 100.0 % Test CRC 9C46D0A8 Copy CRC 9C46D0A8 Accurately ripped (confidence 1) [43D689DF] Copy OK

Track 4

Filename E:\Musikk\V\Various\2008 - Taken - Original Soundtrack\04 - To the Airport.wav

Peak level 87.8 % Track quality 100.0 % Test CRC 4A775DED Copy CRC 4A775DED Accurately ripped (confidence 1) [7355A5BC] Copy OK

Track 5

Filename E:\Musikk\V\Various\2008 - Taken - Original Soundtrack\05 - The Concert.wav

Peak level 100.0 % Track quality 100.0 % Test CRC 256303D3 Copy CRC 256303D3 Accurately ripped (confidence 1) [448CB2BA] Copy OK

Track 6

Filename E:\Musikk\V\Various\2008 - Taken - Original Soundtrack\06 - There's Somebody Here.wav

Peak level 100.0 % Track quality 100.0 % Test CRC 3CEBF9B6 Copy CRC 3CEBF9B6 Accurately ripped (confidence 1) [5EC88A18] Copy OK

Track 7

Filename E:\Musikk\V\Various\2008 - Taken - Original Soundtrack\07 - Pursuit at Roissy.wav

Peak level 98.8 % Track quality 100.0 % Test CRC DAB30237 Copy CRC DAB30237 Accurately ripped (confidence 1) [D026DFDA] Copy OK

Track 8

Filename E:\Musikk\V\Various\2008 - Taken - Original Soundtrack\08 - On the Rooftop.wav

Peak level 98.8 % Track quality 100.0 % Test CRC A7EDA6A9 Copy CRC A7EDA6A9 Accurately ripped (confidence 1) [075A9EA8] Copy OK

Track 9

Filename E:\Musikk\V\Various\2008 - Taken - Original Soundtrack\09 - 96 Hours.wav

Peak level 98.8 % Track quality 100.0 % Test CRC 03B1B5BB Copy CRC 03B1B5BB Accurately ripped (confidence 1) [9D820F10] Copy OK

Track 10

Filename E:\Musikk\V\Various\2008 - Taken - Original Soundtrack\10 - The Construction Site.wav

Peak level 98.8 % Track quality 100.0 % Test CRC DA57E97D Copy CRC DA57E97D Accurately ripped (confidence 1) [BA1F6CF3] Copy OK

Track 11

Filename E:\Musikk\V\Various\2008 - Taken - Original Soundtrack\11 - Pursuit at the Construction Site.wav

Peak level 97.1 % Track quality 99.8 % Test CRC BA42D2DE Copy CRC BA42D2DE Accurately ripped (confidence 1) [9647377D] Copy OK

Track 12

Filename E:\Musikk\V\Various\2008 - Taken - Original Soundtrack\12 - Saving Amanda.wav

Peak level 100.0 % Track quality 100.0 % Test CRC 1930D79E Copy CRC 1930D79E Accurately ripped (confidence 1) [40A5CFC5] Copy OK

Track 13

Filename E:\Musikk\V\Various\2008 - Taken - Original Soundtrack\13 - Escape from St Clair.wav

Peak level 98.8 % Track quality 100.0 % Test CRC 80111D49 Copy CRC 80111D49 Accurately ripped (confidence 1) [EB272533] Copy OK

Track 14

Filename E:\Musikk\V\Various\2008 - Taken - Original Soundtrack\14 - Tick Tick, Boom.wav

Peak level 100.0 % Track quality 100.0 % Test CRC F7BCBE67 Copy CRC F7BCBE67 Accurately ripped (confidence 1) [72B414E6] Copy OK

Track 15

Filename E:\Musikk\V\Various\2008 - Taken - Original Soundtrack\15 - Hotel Camelia.wav

Peak level 89.7 % Track quality 99.8 % Test CRC C9172BB1 Copy CRC C9172BB1 Accurately ripped (confidence 1) [A72F2F5D] Copy OK

Track 16

Filename E:\Musikk\V\Various\2008 - Taken - Original Soundtrack\16 - The Auction.wav

Peak level 100.0 % Track quality 100.0 % Test CRC 3DAA7393 Copy CRC 3DAA7393 Accurately ripped (confidence 1) [54D9D841] Copy OK

Track 17

Filename E:\Musikk\V\Various\2008 - Taken - Original Soundtrack\17 - Pursuit by the Seine.wav

Peak level 98.8 % Track quality 100.0 % Test CRC 43F46242 Copy CRC 43F46242 Accurately ripped (confidence 1) [79D5EBB6] Copy OK

Track 18

Filename E:\Musikk\V\Various\2008 - Taken - Original Soundtrack\18 - On the Boat.wav

Peak level 97.6 % Track quality 100.0 % Test CRC DA8D1247 Copy CRC DA8D1247 Accurately ripped (confidence 1) [92E76FE0] Copy OK

Track 19

Filename E:\Musikk\V\Various\2008 - Taken - Original Soundtrack\19 - The Last Fight.wav

Peak level 98.8 % Track quality 100.0 % Test CRC E72834B2 Copy CRC E72834B2 Accurately ripped (confidence 1) [83EAD019] Copy OK

Track 20

Filename E:\Musikk\V\Various\2008 - Taken - Original Soundtrack\20 - The Dragster Wave.wav

Peak level 98.8 % Track quality 100.0 % Test CRC 876803E1 Copy CRC 876803E1 Accurately ripped (confidence 1) [7A1B42FD] Copy OK

All tracks accurately ripped

No errors occurred

End of status report


Трекер:  [ 30-Янв-2011 13:03 ]

  

Скачать .torrent

Размер .torrent файла 12 KB


Размер: 261 MB
Хэш (hash) релиза: debecc9debdd6ff1881e193fb9cd24962b5afc6f

Торренты, похожие на Заложница скачать торрент

Форум Название Автор Размер S L Добавлен
Саундтреки к фильмам и мультфильмам (lossless) ·· (Score) Заложница 3 / Taken 3 (Nathaniel Mechaly) [WEB] - 2015 (2014), FLAC (tracks) lossless Galfimbul 368403074351 MB 0 0 1428474136

09:22

8-Апр-15

Саундтреки к фильмам и мультфильмам (mp3) ·· (Score) Заложница 3 / Taken 3 (by Nathaniel Mechaly) - 2015, MP3, 320 kbps Galfimbul 168969410161 MB 0 0 1420795693

12:28

9-Янв-15

Саундтреки ·· (Score / Soundtrack) Заложница 2 / Taken 2 (by Nathaniel Mechaly & VA) - 2012, MP3, 320 kbps Galfimbul 129186037123 MB 0 0 1351331160

12:46

27-Окт-12

bot

Топик был перенесен в форум Саундтреки к фильмам и мультфильмам (lossless)

Перенес FRANKS

Хотите добавить комментарий к записи скачать торрент Заложница

!Обратная связь