Скачать через торрент музыку Недетское кино Not Another Teen Movie - 2001, FLAC бесплатно без регистрации torrent

Если у вас наблюдаются проблемы со скриншотами, переходом по ссылками, скачиванием торрентов - проблемы в блокировщике рекламы AdBlock. #хорошегоДня!


Статистика раздачи
Размер:  319 MB   |    Зарегистрирован:  6 лет 7 месяцев   |    .torrent скачан:  59 раз   |   
Раздают:  1  
   
Загрузка...
 
Автор Сообщение

FRANKS

avatar FRANKS


Недетское кино / Not Another Teen Movie

Жанр: Soundtrack/Rock/Alternative
Год выпуска диска: 2001
Производитель диска: Europe
Аудио кодек: FLAC
Тип рипа: image+.cue+scans
Битрейт аудио: lossless
Продолжительность: 41:52

Треклист:
01. Marilyn Manson - Tainted Love
02. The Smashing Pumpkins - Never Let Me Down Again
03. Orgy - Blue Monday
04. System Of A Down - The Metro
05. Scott Weiland - But Not Tonight
06. Saliva - Message Of Love
07. Stabbing Westward - Bizzare Love Triangle
08. Goldfinger - 99 Red Balloons
09. Mest - I Melt With You
10. Good Charlotte - If You Leave
11. Muse - Please Please Please Let Me Get I What Want
12. Phantom Planet - Somebodys Baby[/b][/color]

Сканы (600 dpi, jpg) прилагаются.
 
Exact Audio Copy V0.99 prebeta 4 from 23. January 2008

Отчёт EAC об извлечении, выполненном 10. декабря 2009, 6:32

Various / Not Another Teen Movie [O.S.T.]

Дисковод: PIONEER DVD-RW DVR-212 Adapter: 7 ID: 0

Режим чтения : ДостоверностьИспользование точного потока : ДаОтключение кэша аудио : ДаИспользование указателей C2 : Нет

Коррекция смещения при чтении : 48Способность читать области Lead-in и Lead-out : НетЗаполнение пропущенных сэмплов тишиной : ДаУдаление блоков с тишиной в начале и конце : НетПри вычислениях CRC использовались нулевые сэмплы : ДаИнтерфейс : Установленный внешний ASPI-интерфейс

Выходной формат : Внутренние WAV-операцииФормат сэмплов : 44.100 Гц; 16 бит; стерео

TOC извлечённого CD

Трек | Старт | Длительность | Начальный сектор | Конечный сектор --------------------------------------------------------------------- 1 | 0:00.00 | 3:21.62 | 0 | 15136 2 | 3:21.62 | 4:00.70 | 15137 | 33206 3 | 7:22.57 | 4:26.38 | 33207 | 53194 4 | 11:49.20 | 2:59.42 | 53195 | 66661 5 | 14:48.62 | 4:50.55 | 66662 | 88466 6 | 19:39.42 | 3:48.65 | 88467 | 105631 7 | 23:28.32 | 3:43.53 | 105632 | 122409 8 | 27:12.10 | 3:50.32 | 122410 | 139691 9 | 31:02.42 | 3:19.43 | 139692 | 154659 10 | 34:22.10 | 2:45.05 | 154660 | 167039 11 | 37:07.15 | 1:58.55 | 167040 | 175944 12 | 39:05.70 | 2:52.15 | 175945 | 188859

Характеристики диапазона извлечения и сообщения об ошибках

Выбранный диапазон

Имя файла B:\MP 3\Soundtracks\Not Another Teen Movie - Soundtrack (2001) (FLAC)\Various - Not Another Teen Movie [O.S.T.].wav

Пиковый уровень 96.5 % Качество диапазона 100.0 % CRC теста 64440B3F CRC копии 64440B3F Копирование... OK

Ошибок не произошло

AccurateRip: сводка

Трек 1 точность не определена (достоверность 4) [BF106957], AccurateRip вернул [2AA4BB83]Трек 2 точность не определена (достоверность 5) [85AE0193], AccurateRip вернул [B87797C3]Трек 3 точность не определена (достоверность 4) [5BF4BE2C], AccurateRip вернул [6FD1DE6C]Трек 4 точность не определена (достоверность 4) [32D3A642], AccurateRip вернул [F91DEB70]Трек 5 точность не определена (достоверность 3) [1ABD3BB5], AccurateRip вернул [B43E6AC6]Трек 6 точность не определена (достоверность 4) [CF309A11], AccurateRip вернул [6F1B3E81]Трек 7 точность не определена (достоверность 4) [D55B03A9], AccurateRip вернул [6255F586]Трек 8 точность не определена (достоверность 4) [086DBCC3], AccurateRip вернул [09F09A8C]Трек 9 точность не определена (достоверность 4) [B56616E6], AccurateRip вернул [0FBD9DA7]Трек 10 точность не определена (достоверность 3) [3701ACDF], AccurateRip вернул [92C03292]Трек 11 точность не определена (достоверность 4) [E9A6DFD8], AccurateRip вернул [C42B29EB]Трек 12 точность не определена (достоверность 4) [B0CCB808], AccurateRip вернул [F06F29F4]

Ни один трек не прошёл проверки на точностьВ вашей базе может быть иной вариант штамповки диска

Конец отчёта


Трекер:  [ 30-Янв-2011 13:23 ]

  

Скачать .torrent

Размер .torrent файла 13 KB


Размер: 319 MB
Хэш (hash) релиза: 8c5c1747fa945b2e79df0ac551d9e1dc81eff700

bot

Топик был перенесен в форум Саундтреки к фильмам и мультфильмам (lossless)

Перенес FRANKS

Mos

:!: Убрать ссылки на сторонние ресурсы.

Хотите добавить комментарий к записи скачать торрент Недетское кино Not Another Teen Movie - 2001, FLAC

!Обратная связь