Скачать через торрент музыку Разборки в стиле кунг-фу Kung Fu Hustle бесплатно без регистрации torrent

Если у вас наблюдаются проблемы со скриншотами, переходом по ссылками, скачиванием торрентов - проблемы в блокировщике рекламы AdBlock. #хорошегоДня!


Статистика раздачи
Размер:  217 MB   |    Зарегистрирован:  6 лет 11 месяцев   |    .torrent скачан:  53 раза   |   
Раздают:  1  
   
Загрузка...
 
Автор Сообщение

AqvaGen


Разборки в стиле кунг-фу / Kung Fu Hustle

Жанр: Soundtrack
Год выпуска диска: 2005
Производитель диска: Varese Sarabande VSD-6645 Germany
Аудио кодек: WAVPack
Тип рипа: tracks+.cue
Битрейт аудио: lossless
Продолжительность: 00:37:47
Трэклист:
1. Kung fu 1 (00:53)
Stephen Chow
2. Nothing ventured, nothing gained (02:34)
Raymond Wong
3. Fisherman's song of the east China sea (03:03)
Ma Sheng Long / Gu Guan Ren ; Performed by The Hong Kong Chinese Orchestra
4. Ambush from all sides (00:45)
Traditional ; Performed by The Hong Kong Chinese Orchestra
5. Allegro molto vivace from zigeunerweisen, op. 20 (01:02)
Sarasate ; Performed by Akiko Suwanai / Budapest Festival Orchestra / Ivan Fischer
6. Moderato from zigeunerweisen, op. 20 (01:24)
Sarasate ; Performed by Akiko Suwanai / Budapest Festival Orchestra / Ivan Fischer
7. Decree of the Sichuan general (04:08)
Traditional ; Performed by The Hong Kong Chinese Orchestra
8. Midnight assassin (00:55)
Raymond Wong
9. The blade of gu qin (01:22)
Raymond Wong ; Performed by The Hong Kong Chinese Orchestra
10. Night club band (01:04)
Raymond Wong
11. Sabre dance (01:26)
Aram Khachaturian
12. Daring general (02:56)
Yu Hui Yong / Hu Deng Tiao ; Performed by The Hong Kong Chinese Orchestra
13. Casino fight (02:08)
Raymond Wong
14. Realization (01:30)
Raymond Wong
15. Ying Xiong men zhan sheng le da du he (01:40)
Luo Zong Xian ; Performed by The Hong Kong Chinese Orchestra
16. Dagger society suite (02:43)
Shang Yi ; Performed by The Hong Kong Chinese Orchestra
17. Fisherman's song of the east China sea (03:13)
Ma Sheng Long / Gu Guan Ren ; Performed by The Hong Kong Chinese Orchestra
18. Buddhist palm (01:31)
Raymond Wong
19. Nothing ventured, nothing gained (03:30)
Raymond Wong / Lin Xi ; Performed by Huang Sheng Yi

+ scans 600 dpi
 
Exact Audio Copy V0.99 prebeta 5 from 4. May 2009

Отчёт EAC об извлечении, выполненном 15. июня 2010, 11:51

Various / Kung Fu Hustle

Дисковод: Optiarc DVD RW AD-7201A Adapter: 1 ID: 0

Режим чтения : ДостоверностьИспользование точного потока : ДаОтключение кэша аудио : ДаИспользование указателей C2 : Нет

Коррекция смещения при чтении : 48Способность читать области Lead-in и Lead-out : НетЗаполнение пропущенных сэмплов тишиной : ДаУдаление блоков с тишиной в начале и конце : НетПри вычислениях CRC использовались нулевые сэмплы : ДаИнтерфейс : Установленный внешний ASPI-интерфейсОбработка зазоров : Добавлено к предыдущему треку

Выходной формат : Пользовательский кодировщикВыбранный битрейт : 1024 kBit/sКачество : ВысокийДобавление ID3-тэга : НетУтилита сжатия : C:\wavpack-4.60.1\wavpack.exeДополнительные параметры : -hmx3 -w "Year=%y" -w "Genre=%m" %s %d

TOC извлечённого CD

Трек | Старт | Длительность | Начальный сектор | Конечный сектор --------------------------------------------------------------------- 1 | 0:00.00 | 0:52.20 | 0 | 3919 2 | 0:52.20 | 2:33.27 | 3920 | 15421 3 | 3:25.47 | 3:03.38 | 15422 | 29184 4 | 6:29.10 | 0:44.66 | 29185 | 32550 5 | 7:14.01 | 1:02.43 | 32551 | 37243 6 | 8:16.44 | 1:24.58 | 37244 | 43601 7 | 9:41.27 | 4:07.26 | 43602 | 62152 8 | 13:48.53 | 0:55.49 | 62153 | 66326 9 | 14:44.27 | 1:22.48 | 66327 | 72524 10 | 16:07.00 | 1:02.53 | 72525 | 77227 11 | 17:09.53 | 1:26.30 | 77228 | 83707 12 | 18:36.08 | 2:55.28 | 83708 | 96860 13 | 21:31.36 | 2:08.52 | 96861 | 106512 14 | 23:40.13 | 1:30.13 | 106513 | 113275 15 | 25:10.26 | 1:40.62 | 113276 | 120837 16 | 26:51.13 | 2:42.40 | 120838 | 133027 17 | 29:33.53 | 3:13.48 | 133028 | 147550 18 | 32:47.26 | 1:31.52 | 147551 | 154427 19 | 34:19.03 | 3:27.70 | 154428 | 170022

Трек 1

Имя файла E:\torrent\Kung Fu Hustle_OST\kung fu hustle_ost\Stephen Chow - Kung Fu Hustle - 01. Kung Fu 1.wav

Длина предзазора 0:00:02.00

Пиковый уровень 99.0 % Качество трека 100.0 % CRC копии 3196F4AA Точное извлечение (достоверность 4) [B37A28CB] Копирование... OK

Трек 2

Имя файла E:\torrent\Kung Fu Hustle_OST\kung fu hustle_ost\Raymond Wong - Kung Fu Hustle - 02. Nothing Ventured, Nothing Gained.wav

Длина предзазора 0:00:01.06

Пиковый уровень 99.6 % Качество трека 100.0 % CRC копии 68021936 Точное извлечение (достоверность 4) [4148E549] Копирование... OK

Трек 3

Имя файла E:\torrent\Kung Fu Hustle_OST\kung fu hustle_ost\Ma Sheng Long, Gu Guan Ren - Kung Fu Hustle - 03. Fisherman's Song of the East China Sea.wav

Длина предзазора 0:00:00.53

Пиковый уровень 98.8 % Качество трека 100.0 % CRC копии DA2808B8 Точное извлечение (достоверность 3) [65659880] Копирование... OK

Трек 4

Имя файла E:\torrent\Kung Fu Hustle_OST\kung fu hustle_ost\The Hong Kong Chinese Orchestra - Kung Fu Hustle - 04. Ambush From All Sides.wav

Длина предзазора 0:00:00.69

Пиковый уровень 99.0 % Качество трека 100.0 % CRC копии 28B90709 Точное извлечение (достоверность 3) [8C185DC0] Копирование... OK

Трек 5

Имя файла E:\torrent\Kung Fu Hustle_OST\kung fu hustle_ost\Akiko Suwanai, Budapest Festival Orchestra, Ivan Fisher - Kung Fu Hustle - 05. Allegro Molto Vivace From Zigeunerweisen, Op. 20.wav

Длина предзазора 0:00:00.51

Пиковый уровень 98.9 % Качество трека 100.0 % CRC копии C7E794B4 Точное извлечение (достоверность 3) [8CFDD0AC] Копирование... OK

Трек 6

Имя файла E:\torrent\Kung Fu Hustle_OST\kung fu hustle_ost\Akiko Suwanai, Budapest Festival Orchestra, Ivan Fisher - Kung Fu Hustle - 06. Moderato From Zigeunerweisen, Op. 20.wav

Длина предзазора 0:00:00.57

Пиковый уровень 98.9 % Качество трека 100.0 % CRC копии 96DA9858 Точное извлечение (достоверность 4) [AC36FA8D] Копирование... OK

Трек 7

Имя файла E:\torrent\Kung Fu Hustle_OST\kung fu hustle_ost\The Hong Kong Chinese Orchestra - Kung Fu Hustle - 07. Decree of the Sichuan General.wav

Длина предзазора 0:00:01.27

Пиковый уровень 98.9 % Качество трека 100.0 % CRC копии A749709D Точное извлечение (достоверность 4) [14C9D725] Копирование... OK

Трек 8

Имя файла E:\torrent\Kung Fu Hustle_OST\kung fu hustle_ost\Raymond Wong - Kung Fu Hustle - 08. Midnight Assassin.wav

Длина предзазора 0:00:00.67

Пиковый уровень 98.8 % Качество трека 100.0 % CRC копии D989C58E Точное извлечение (достоверность 4) [7C19D781] Копирование... OK

Трек 9

Имя файла E:\torrent\Kung Fu Hustle_OST\kung fu hustle_ost\Raymond Wong - Kung Fu Hustle - 09. The Blade of Gu Qin.wav

Длина предзазора 0:00:01.10

Пиковый уровень 98.8 % Качество трека 100.0 % CRC копии 07D1CAF8 Точное извлечение (достоверность 4) [0D834D2F] Копирование... OK

Трек 10

Имя файла E:\torrent\Kung Fu Hustle_OST\kung fu hustle_ost\Raymond Wong - Kung Fu Hustle - 10. Night Club Band.wav

Длина предзазора 0:00:02.15

Пиковый уровень 71.4 % Качество трека 100.0 % CRC копии FF947EFE Точное извлечение (достоверность 4) [A0A55932] Копирование... OK

Трек 11

Имя файла E:\torrent\Kung Fu Hustle_OST\kung fu hustle_ost\Aram Khachaturian - Kung Fu Hustle - 11. Sabre Dance.wav

Длина предзазора 0:00:00.36

Пиковый уровень 98.7 % Качество трека 100.0 % CRC копии D96BD962 Точное извлечение (достоверность 4) [7ED18854] Копирование... OK

Трек 12

Имя файла E:\torrent\Kung Fu Hustle_OST\kung fu hustle_ost\Yu Hui Yong, Hu Deng Tiao - Kung Fu Hustle - 12. Daring General.wav

Длина предзазора 0:00:01.17

Пиковый уровень 99.1 % Качество трека 100.0 % CRC копии 4411B43D Точное извлечение (достоверность 4) [E67B91E2] Копирование... OK

Трек 13

Имя файла E:\torrent\Kung Fu Hustle_OST\kung fu hustle_ost\Raymond Wong - Kung Fu Hustle - 13. Casino Fight.wav

Длина предзазора 0:00:00.52

Пиковый уровень 99.6 % Качество трека 100.0 % CRC копии 87A64DC2 Точное извлечение (достоверность 4) [521CD03A] Копирование... OK

Трек 14

Имя файла E:\torrent\Kung Fu Hustle_OST\kung fu hustle_ost\Raymond Wong - Kung Fu Hustle - 14. Realization.wav

Длина предзазора 0:00:01.12

Пиковый уровень 99.2 % Качество трека 100.0 % CRC копии 4EE23250 Точное извлечение (достоверность 4) [DE4A16EC] Копирование... OK

Трек 15

Имя файла E:\torrent\Kung Fu Hustle_OST\kung fu hustle_ost\Luo Zong Xian - Kung Fu Hustle - 15. Ying Xiong Men Zhan Sheng Le Da Du He.wav

Длина предзазора 0:00:01.41

Пиковый уровень 99.5 % Качество трека 100.0 % CRC копии FD9E6AF3 Точное извлечение (достоверность 4) [857FAFE0] Копирование... OK

Трек 16

Имя файла E:\torrent\Kung Fu Hustle_OST\kung fu hustle_ost\Shang Yi - Kung Fu Hustle - 16. Dagger Society Suite.wav

Длина предзазора 0:00:02.12

Пиковый уровень 98.8 % Качество трека 100.0 % CRC копии 921E9EAB Точное извлечение (достоверность 4) [E0E1D6E2] Копирование... OK

Трек 17

Имя файла E:\torrent\Kung Fu Hustle_OST\kung fu hustle_ost\Ma Sheng Long, Gu Guan Ren - Kung Fu Hustle - 17. Fisherman's Song of the East China Sea.wav

Длина предзазора 0:00:01.25

Пиковый уровень 99.1 % Качество трека 100.0 % CRC копии 033334F6 Точное извлечение (достоверность 4) [483823D3] Копирование... OK

Трек 18

Имя файла E:\torrent\Kung Fu Hustle_OST\kung fu hustle_ost\Raymond Wong - Kung Fu Hustle - 18. Buddhist Palm.wav

Длина предзазора 0:00:02.10

Пиковый уровень 99.3 % Качество трека 100.0 % CRC копии E61FB92D Точное извлечение (достоверность 4) [E579CB0D] Копирование... OK

Трек 19

Имя файла E:\torrent\Kung Fu Hustle_OST\kung fu hustle_ost\Raymond Wong, Lin Xi - Kung Fu Hustle - 19. Nothing Ventured, Nothing Gained (Huang Sheng Yi).wav

Длина предзазора 0:00:02.27

Пиковый уровень 99.6 % Качество трека 100.0 % CRC копии AE713B9E Точное извлечение (достоверность 4) [9BBCB7CA] Копирование... OK

Все треки извлечены точно

Ошибок не произошло

Конец отчёта
 
REM GENRE SoundtrackREM DATE 2005REM DISCID FE08DA13REM COMMENT "ExactAudioCopy v0.99pb5"PERFORMER "Various"TITLE "Kung Fu Hustle"FILE "Stephen Chow - Kung Fu Hustle - 01. Kung Fu 1.wav" WAVE TRACK 01 AUDIO TITLE "Kung Fu 1" PERFORMER "Stephen Chow" ISRC US3M50564501 INDEX 01 00:00:00 TRACK 02 AUDIO TITLE "Nothing Ventured, Nothing Gained" PERFORMER "Raymond Wong" ISRC US3M50564502 INDEX 00 00:51:14FILE "Raymond Wong - Kung Fu Hustle - 02. Nothing Ventured, Nothing Gained.wav" WAVE INDEX 01 00:00:00 TRACK 03 AUDIO TITLE "Fisherman's Song of the East China Sea" PERFORMER "Ma Sheng Long, Gu Guan Ren" ISRC US3M50564503 INDEX 00 02:32:49FILE "Ma Sheng Long, Gu Guan Ren - Kung Fu Hustle - 03. Fisherman's Song of the East China Sea.wav" WAVE INDEX 01 00:00:00 TRACK 04 AUDIO TITLE "Ambush From All Sides" PERFORMER "The Hong Kong Chinese Orchestra" ISRC US3M50564504 INDEX 00 03:02:44FILE "The Hong Kong Chinese Orchestra - Kung Fu Hustle - 04. Ambush From All Sides.wav" WAVE INDEX 01 00:00:00 TRACK 05 AUDIO TITLE "Allegro Molto Vivace From Zigeunerweisen, Op. 20" PERFORMER "Akiko Suwanai, Budapest Festival Orchestra, Ivan Fisher" ISRC US3M50564505 INDEX 00 00:44:15FILE "Akiko Suwanai, Budapest Festival Orchestra, Ivan Fisher - Kung Fu Hustle - 05. Allegro Molto Vivace From Zigeunerweisen, Op. 20.wav" WAVE INDEX 01 00:00:00 TRACK 06 AUDIO TITLE "Moderato From Zigeunerweisen, Op. 20" PERFORMER "Akiko Suwanai, Budapest Festival Orchestra, Ivan Fisher" ISRC US3M50564506 INDEX 00 01:01:61FILE "Akiko Suwanai, Budapest Festival Orchestra, Ivan Fisher - Kung Fu Hustle - 06. Moderato From Zigeunerweisen, Op. 20.wav" WAVE INDEX 01 00:00:00 TRACK 07 AUDIO TITLE "Decree of the Sichuan General" PERFORMER "The Hong Kong Chinese Orchestra" ISRC US3M50564507 INDEX 00 01:23:31FILE "The Hong Kong Chinese Orchestra - Kung Fu Hustle - 07. Decree of the Sichuan General.wav" WAVE INDEX 01 00:00:00 TRACK 08 AUDIO TITLE "Midnight Assassin" PERFORMER "Raymond Wong" ISRC US3M50564508 INDEX 00 04:06:34FILE "Raymond Wong - Kung Fu Hustle - 08. Midnight Assassin.wav" WAVE INDEX 01 00:00:00 TRACK 09 AUDIO TITLE "The Blade of Gu Qin" PERFORMER "Raymond Wong" ISRC US3M50564509 INDEX 00 00:54:39FILE "Raymond Wong - Kung Fu Hustle - 09. The Blade of Gu Qin.wav" WAVE INDEX 01 00:00:00 TRACK 10 AUDIO TITLE "Night Club Band" PERFORMER "Raymond Wong" ISRC US3M50564510 INDEX 00 01:20:33FILE "Raymond Wong - Kung Fu Hustle - 10. Night Club Band.wav" WAVE INDEX 01 00:00:00 TRACK 11 AUDIO TITLE "Sabre Dance" PERFORMER "Aram Khachaturian" ISRC US3M50564511 INDEX 00 01:02:17FILE "Aram Khachaturian - Kung Fu Hustle - 11. Sabre Dance.wav" WAVE INDEX 01 00:00:00 TRACK 12 AUDIO TITLE "Daring General" PERFORMER "Yu Hui Yong, Hu Deng Tiao" ISRC US3M50564512 INDEX 00 01:25:13FILE "Yu Hui Yong, Hu Deng Tiao - Kung Fu Hustle - 12. Daring General.wav" WAVE INDEX 01 00:00:00 TRACK 13 AUDIO TITLE "Casino Fight" PERFORMER "Raymond Wong" ISRC US3M50564513 INDEX 00 02:54:51FILE "Raymond Wong - Kung Fu Hustle - 13. Casino Fight.wav" WAVE INDEX 01 00:00:00 TRACK 14 AUDIO TITLE "Realization" PERFORMER "Raymond Wong" ISRC US3M50564514 INDEX 00 02:07:40FILE "Raymond Wong - Kung Fu Hustle - 14. Realization.wav" WAVE INDEX 01 00:00:00 TRACK 15 AUDIO TITLE "Ying Xiong Men Zhan Sheng Le Da Du He" PERFORMER "Luo Zong Xian" ISRC US3M50564515 INDEX 00 01:28:47FILE "Luo Zong Xian - Kung Fu Hustle - 15. Ying Xiong Men Zhan Sheng Le Da Du He.wav" WAVE INDEX 01 00:00:00 TRACK 16 AUDIO TITLE "Dagger Society Suite" PERFORMER "Shang Yi" ISRC US3M50564516 INDEX 00 01:38:50FILE "Shang Yi - Kung Fu Hustle - 16. Dagger Society Suite.wav" WAVE INDEX 01 00:00:00 TRACK 17 AUDIO TITLE "Fisherman's Song of the East China Sea" PERFORMER "Ma Sheng Long, Gu Guan Ren" ISRC US3M50564517 INDEX 00 02:41:15FILE "Ma Sheng Long, Gu Guan Ren - Kung Fu Hustle - 17. Fisherman's Song of the East China Sea.wav" WAVE INDEX 01 00:00:00 TRACK 18 AUDIO TITLE "Buddhist Palm" PERFORMER "Raymond Wong" ISRC US3M50564518 INDEX 00 03:11:38FILE "Raymond Wong - Kung Fu Hustle - 18. Buddhist Palm.wav" WAVE INDEX 01 00:00:00 TRACK 19 AUDIO TITLE "Nothing Ventured, Nothing Gained (Huang Sheng Yi)" PERFORMER "Raymond Wong, Lin Xi" ISRC US3M50564519 INDEX 00 01:29:25FILE "Raymond Wong, Lin Xi - Kung Fu Hustle - 19. Nothing Ventured, Nothing Gained (Huang Sheng Yi).wav" WAVE INDEX 01 00:00:00


Трекер:  [ 29-Дек-2010 22:17 ]

  

Скачать .torrent

Размер .torrent файла 20 KB


Размер: 217 MB
Хэш (hash) релиза: 9ecceb3a258961fdcbbaca97d7119948c27d5f4a

bot

Топик был перенесен в форум Саундтреки к фильмам и мультфильмам (lossless)

Перенес AqvaGen

Хотите добавить комментарий к записи скачать торрент Разборки в стиле кунг-фу Kung Fu Hustle

!Обратная связь