Скачать через торрент музыку Marco Beltrami & Buck Sanders - Max Payne Макс Пэйн бесплатно без регистрации torrent

Если у вас наблюдаются проблемы со скриншотами, переходом по ссылками, скачиванием торрентов - проблемы в блокировщике рекламы AdBlock. #хорошегоДня!


Статистика раздачи
Размер:  263 MB   |    Зарегистрирован:  6 лет 8 месяцев   |    .torrent скачан:  44 раза   |   
Раздают:  1  
   
Загрузка...
 
Автор Сообщение

AqvaGen


Max Payne / Макс Пэйн (Original Motion Picture Score)
Композиторы: Marco Beltrami & Buck Sanders
Жанр: Score
Год выпуска диска: 2008
Аудио кодек: WAVPack
Тип рипа: image+.cue
Битрейт аудио: lossless
Продолжительность: 44:40

Трэклист:
1. Max Attacks
2. Investigation
3. Payneful Piano
4. Colvin Quivers
5. Dethlab
6. Storming the Office
7. No Respects For You
8. Lupino Spreads His Wings
9. Max Returns Home
10. Factoring Max
11. Window Payne
12. Dark Heaven
13. Vote for Dennis
14. BB's Maxim
15. Max Marches On
16. Heaven To the Max
17. Topless Fanfare


Доп. информация:
 
Exact Audio Copy V0.99 prebeta 4 from 23. January 2008

EAC extraction logfile from 4. January 2009, 15:12

Marco Beltrami & Buck Sanders / Max Payne

Used drive : ASUS DVD-E818AT Adapter: 0 ID: 5

Read mode : SecureUtilize accurate stream : YesDefeat audio cache : YesMake use of C2 pointers : No

Read offset correction : 6Overread into Lead-In and Lead-Out : NoFill up missing offset samples with silence : YesDelete leading and trailing silent blocks : NoNull samples used in CRC calculations : YesUsed interface : Installed external ASPI interface

Used output format : Internal WAV RoutinesSample format : 44.100 Hz; 16 Bit; Stereo

TOC of the extracted CD

Track | Start | Length | Start sector | End sector --------------------------------------------------------- 1 | 0:00.00 | 3:52.30 | 0 | 17429 2 | 3:52.30 | 3:30.40 | 17430 | 33219 3 | 7:22.70 | 2:17.02 | 33220 | 43496 4 | 9:39.72 | 3:34.33 | 43497 | 59579 5 | 13:14.30 | 2:33.65 | 59580 | 71119 6 | 15:48.20 | 1:55.56 | 71120 | 79800 7 | 17:44.01 | 2:37.46 | 79801 | 91621 8 | 20:21.47 | 1:51.34 | 91622 | 99980 9 | 22:13.06 | 2:05.07 | 99981 | 109362 10 | 24:18.13 | 1:47.72 | 109363 | 117459 11 | 26:06.10 | 3:33.54 | 117460 | 133488 12 | 29:39.64 | 2:40.19 | 133489 | 145507 13 | 32:20.08 | 2:05.63 | 145508 | 154945 14 | 34:25.71 | 2:48.34 | 154946 | 167579 15 | 37:14.30 | 2:26.32 | 167580 | 178561 16 | 39:40.62 | 1:48.47 | 178562 | 186708 17 | 41:29.34 | 3:10.11 | 186709 | 200969

Range status and errors

Selected range

Filename G:\~~##~~SCORES~~##~~\Marco Beltrami & Buck Sanders - Max Payne.wav

Peak level 98.8 % Range quality 100.0 % Test CRC 6E7B9B12 Copy CRC 6E7B9B12 Copy OK

No errors occurred

End of status report


Трекер:  [ 29-Дек-2010 22:29 ]

  

Скачать .torrent

Размер .torrent файла 22 KB


Размер: 263 MB
Хэш (hash) релиза: 753264bdf16b1937f3f4ed6ec1991d87a8a6e923

bot

Топик был перенесен в форум Саундтреки к фильмам и мультфильмам (lossless)

Перенес AqvaGen

Хотите добавить комментарий к записи скачать торрент Marco Beltrami & Buck Sanders - Max Payne Макс Пэйн

!Обратная связь