Скачать через торрент музыку After The Sunset | После заката бесплатно без регистрации torrent

Если у вас наблюдаются проблемы со скриншотами, переходом по ссылками, скачиванием торрентов - проблемы в блокировщике рекламы AdBlock. #хорошегоДня!


Статистика раздачи
Размер:  239 MB   |    Зарегистрирован:  6 лет 8 месяцев   |    .torrent скачан:  56 раз   |   
Раздают:  1  
   
Загрузка...
 
Автор Сообщение

AqvaGen


After The Sunset | После заката
Жанр: Score
Год выпуска диска: 2004
Производитель диска: USA
Аудио кодек: FLAC
Тип рипа: tracks+.cue
Битрейт аудио: lossless
Продолжительность: 45:07
01. Stan'S Temptation
02. Operation Lola
03. A Life Filled With Sunshine
04. Stan And Max
05. Distraction
06. Remote Control Drive
07. Cute Little Rock
08. Decoy
09. Yield To Temptation
10. See You Soon
11. Moore No More
12. Return To Underwater
13. Lola Leaves
14. Heist
15. Max Is Gone
16. Yoga And The Book
17. Divers
18. Couples Montage
19. Max Taken
20. The Spy
21. Two Couples
22. Stan's Plan
23. Stan's Habit

 
Exact Audio Copy V0.99 prebeta 5 from 4. May 2009

EAC extraction logfile from 8. September 2009, 15:30

Lalo Schifrin / After The Sunset

Used drive : PLEXTOR DVDR PX-716A Adapter: 0 ID: 1

Read mode : SecureUtilize accurate stream : YesDefeat audio cache : YesMake use of C2 pointers : No

Read offset correction : 30Overread into Lead-In and Lead-Out : NoFill up missing offset samples with silence : YesDelete leading and trailing silent blocks : NoNull samples used in CRC calculations : YesUsed interface : Native Win32 interface for Win NT & 2000Gap handling : Appended to previous track

Used output format : User Defined EncoderSelected bitrate : 128 kBit/sQuality : HighAdd ID3 tag : NoCommand line compressor : C:\Program Files\Exact Audio Copy\Flac\flac.exeAdditional command line options : -8 -V -T "ARTIST=%a" -T "TITLE=%t" -T "ALBUM=%g" -T "DATE=%y" -T "TRACKNUMBER=%n" -T "GENRE=%m" -T "COMMENT=EAC FLAC -8" %s

TOC of the extracted CD

Track | Start | Length | Start sector | End sector --------------------------------------------------------- 1 | 0:00.00 | 0:41.15 | 0 | 3089 2 | 0:41.15 | 2:59.04 | 3090 | 16518 3 | 3:40.19 | 2:32.72 | 16519 | 27990 4 | 6:13.16 | 2:03.68 | 27991 | 37283 5 | 8:17.09 | 2:27.66 | 37284 | 48374 6 | 10:45.00 | 1:52.37 | 48375 | 56811 7 | 12:37.37 | 2:00.26 | 56812 | 65837 8 | 14:37.63 | 2:17.31 | 65838 | 76143 9 | 16:55.19 | 2:16.53 | 76144 | 86396 10 | 19:11.72 | 2:15.37 | 86397 | 96558 11 | 21:27.34 | 2:55.63 | 96559 | 109746 12 | 24:23.22 | 2:57.55 | 109747 | 123076 13 | 27:21.02 | 1:55.50 | 123077 | 131751 14 | 29:16.52 | 2:10.26 | 131752 | 141527 15 | 31:27.03 | 1:58.63 | 141528 | 150440 16 | 33:25.66 | 1:03.01 | 150441 | 155166 17 | 34:28.67 | 2:12.21 | 155167 | 165087 18 | 36:41.13 | 2:04.41 | 165088 | 174428 19 | 38:45.54 | 2:13.36 | 174429 | 184439 20 | 40:59.15 | 1:10.58 | 184440 | 189747 21 | 42:09.73 | 0:40.50 | 189748 | 192797 22 | 42:50.48 | 1:39.07 | 192798 | 200229 23 | 44:29.55 | 0:37.22 | 200230 | 203026

Track 1

Filename D:\Lossless\01. Lalo Schifrin – Stan'S Temptation.wav

Pre-gap length 0:00:02.00

Peak level 95.6 % Track quality 99.2 % Test CRC 196DFB05 Copy CRC 196DFB05 Track not present in AccurateRip database Copy OK

Track 2

Filename D:\Lossless\02. Lalo Schifrin – Operation Lola.wav

Peak level 96.8 % Track quality 99.0 % Test CRC 481FB08E Copy CRC 481FB08E Track not present in AccurateRip database Copy OK

Track 3

Filename D:\Lossless\03. Lalo Schifrin – A Life Filled With Sunshine.wav

Peak level 86.4 % Track quality 99.6 % Test CRC D5081EEB Copy CRC D5081EEB Track not present in AccurateRip database Copy OK

Track 4

Filename D:\Lossless\04. Lalo Schifrin – Stan And Max.wav

Peak level 72.3 % Track quality 99.4 % Test CRC 2B4500D6 Copy CRC 2B4500D6 Track not present in AccurateRip database Copy OK

Track 5

Filename D:\Lossless\05. Lalo Schifrin – Distraction.wav

Peak level 72.6 % Track quality 99.4 % Test CRC C7464E20 Copy CRC C7464E20 Track not present in AccurateRip database Copy OK

Track 6

Filename D:\Lossless\06. Lalo Schifrin – Remote Control Drive.wav

Peak level 94.7 % Track quality 99.1 % Test CRC B07A55F4 Copy CRC B07A55F4 Track not present in AccurateRip database Copy OK

Track 7

Filename D:\Lossless\07. Lalo Schifrin – Cute Little Rock.wav

Peak level 83.6 % Track quality 98.9 % Test CRC A9B3BAA9 Copy CRC A9B3BAA9 Track not present in AccurateRip database Copy OK

Track 8

Filename D:\Lossless\08. Lalo Schifrin – Decoy.wav

Peak level 94.5 % Track quality 99.9 % Test CRC B603E08C Copy CRC B603E08C Track not present in AccurateRip database Copy OK

Track 9

Filename D:\Lossless\09. Lalo Schifrin – Yield To Temptation.wav

Peak level 67.8 % Track quality 99.8 % Test CRC BC69E5B5 Copy CRC BC69E5B5 Track not present in AccurateRip database Copy OK

Track 10

Filename D:\Lossless\10. Lalo Schifrin – See You Soon.wav

Peak level 94.4 % Track quality 99.8 % Test CRC 7FAB8793 Copy CRC 7FAB8793 Track not present in AccurateRip database Copy OK

Track 11

Filename D:\Lossless\11. Lalo Schifrin – Moore No More.wav

Peak level 85.1 % Track quality 100.0 % Test CRC 4D4AC26A Copy CRC 4D4AC26A Track not present in AccurateRip database Copy OK

Track 12

Filename D:\Lossless\12. Lalo Schifrin – Return To Underwater.wav

Peak level 95.2 % Track quality 100.0 % Test CRC 52B89285 Copy CRC 52B89285 Track not present in AccurateRip database Copy OK

Track 13

Filename D:\Lossless\13. Lalo Schifrin – Lola Leaves.wav

Peak level 81.4 % Track quality 99.3 % Test CRC 225275F1 Copy CRC 225275F1 Track not present in AccurateRip database Copy OK

Track 14

Filename D:\Lossless\14. Lalo Schifrin – Heist.wav

Peak level 92.1 % Track quality 100.0 % Test CRC 2233F1C8 Copy CRC 2233F1C8 Track not present in AccurateRip database Copy OK

Track 15

Filename D:\Lossless\15. Lalo Schifrin – Max Is Gone.wav

Peak level 83.2 % Track quality 100.0 % Test CRC 870B0FF4 Copy CRC 870B0FF4 Track not present in AccurateRip database Copy OK

Track 16

Filename D:\Lossless\16. Lalo Schifrin – Yoga And The Book.wav

Peak level 47.7 % Track quality 100.0 % Test CRC E8DEDB24 Copy CRC E8DEDB24 Track not present in AccurateRip database Copy OK

Track 17

Filename D:\Lossless\17. Lalo Schifrin – Divers.wav

Peak level 78.7 % Track quality 99.6 % Test CRC B9667600 Copy CRC B9667600 Track not present in AccurateRip database Copy OK

Track 18

Filename D:\Lossless\18. Lalo Schifrin – Couples Montage.wav

Peak level 95.7 % Track quality 99.9 % Test CRC B2266623 Copy CRC B2266623 Track not present in AccurateRip database Copy OK

Track 19

Filename D:\Lossless\19. Lalo Schifrin – Max Taken.wav

Peak level 95.0 % Track quality 99.9 % Test CRC 0F5FB0BA Copy CRC 0F5FB0BA Track not present in AccurateRip database Copy OK

Track 20

Filename D:\Lossless\20. Lalo Schifrin – The Spy.wav

Peak level 56.9 % Track quality 100.0 % Test CRC 3F67499C Copy CRC 3F67499C Track not present in AccurateRip database Copy OK

Track 21

Filename D:\Lossless\21. Lalo Schifrin – Two Couples.wav

Peak level 92.5 % Track quality 100.0 % Test CRC 5BA32109 Copy CRC 5BA32109 Track not present in AccurateRip database Copy OK

Track 22

Filename D:\Lossless\22. Lalo Schifrin – Stan's Plan.wav

Peak level 80.7 % Track quality 100.0 % Test CRC 96B762E6 Copy CRC 96B762E6 Track not present in AccurateRip database Copy OK

Track 23

Filename D:\Lossless\23. Lalo Schifrin – Stan's Habit.wav

Peak level 83.2 % Track quality 100.0 % Test CRC 89F4BBF1 Copy CRC 89F4BBF1 Track not present in AccurateRip database Copy OK

None of the tracks are present in the AccurateRip database

No errors occurred

End of status report

 
REM GENRE SoundtrackREM DATE 2004REM DISCID 460A9317REM COMMENT "ExactAudioCopy v0.99pb5"PERFORMER "Lalo Schifrin"TITLE "After The Sunset"FILE "01. Lalo Schifrin – Stan'S Temptation.wav" WAVE TRACK 01 AUDIO TITLE "Stan'S Temptation" PERFORMER "Lalo Schifrin" INDEX 01 00:00:00FILE "02. Lalo Schifrin – Operation Lola.wav" WAVE TRACK 02 AUDIO TITLE "Operation Lola" PERFORMER "Lalo Schifrin" INDEX 01 00:00:00FILE "03. Lalo Schifrin – A Life Filled With Sunshine.wav" WAVE TRACK 03 AUDIO TITLE "A Life Filled With Sunshine" PERFORMER "Lalo Schifrin" INDEX 01 00:00:00FILE "04. Lalo Schifrin – Stan And Max.wav" WAVE TRACK 04 AUDIO TITLE "Stan And Max" PERFORMER "Lalo Schifrin" INDEX 01 00:00:00FILE "05. Lalo Schifrin – Distraction.wav" WAVE TRACK 05 AUDIO TITLE "Distraction" PERFORMER "Lalo Schifrin" INDEX 01 00:00:00FILE "06. Lalo Schifrin – Remote Control Drive.wav" WAVE TRACK 06 AUDIO TITLE "Remote Control Drive" PERFORMER "Lalo Schifrin" INDEX 01 00:00:00FILE "07. Lalo Schifrin – Cute Little Rock.wav" WAVE TRACK 07 AUDIO TITLE "Cute Little Rock" PERFORMER "Lalo Schifrin" INDEX 01 00:00:00FILE "08. Lalo Schifrin – Decoy.wav" WAVE TRACK 08 AUDIO TITLE "Decoy" PERFORMER "Lalo Schifrin" INDEX 01 00:00:00FILE "09. Lalo Schifrin – Yield To Temptation.wav" WAVE TRACK 09 AUDIO TITLE "Yield To Temptation" PERFORMER "Lalo Schifrin" INDEX 01 00:00:00FILE "10. Lalo Schifrin – See You Soon.wav" WAVE TRACK 10 AUDIO TITLE "See You Soon" PERFORMER "Lalo Schifrin" INDEX 01 00:00:00FILE "11. Lalo Schifrin – Moore No More.wav" WAVE TRACK 11 AUDIO TITLE "Moore No More" PERFORMER "Lalo Schifrin" INDEX 01 00:00:00FILE "12. Lalo Schifrin – Return To Underwater.wav" WAVE TRACK 12 AUDIO TITLE "Return To Underwater" PERFORMER "Lalo Schifrin" INDEX 01 00:00:00FILE "13. Lalo Schifrin – Lola Leaves.wav" WAVE TRACK 13 AUDIO TITLE "Lola Leaves" PERFORMER "Lalo Schifrin" INDEX 01 00:00:00FILE "14. Lalo Schifrin – Heist.wav" WAVE TRACK 14 AUDIO TITLE "Heist" PERFORMER "Lalo Schifrin" INDEX 01 00:00:00FILE "15. Lalo Schifrin – Max Is Gone.wav" WAVE TRACK 15 AUDIO TITLE "Max Is Gone" PERFORMER "Lalo Schifrin" INDEX 01 00:00:00FILE "16. Lalo Schifrin – Yoga And The Book.wav" WAVE TRACK 16 AUDIO TITLE "Yoga And The Book" PERFORMER "Lalo Schifrin" INDEX 01 00:00:00FILE "17. Lalo Schifrin – Divers.wav" WAVE TRACK 17 AUDIO TITLE "Divers" PERFORMER "Lalo Schifrin" INDEX 01 00:00:00FILE "18. Lalo Schifrin – Couples Montage.wav" WAVE TRACK 18 AUDIO TITLE "Couples Montage" PERFORMER "Lalo Schifrin" INDEX 01 00:00:00FILE "19. Lalo Schifrin – Max Taken.wav" WAVE TRACK 19 AUDIO TITLE "Max Taken" PERFORMER "Lalo Schifrin" INDEX 01 00:00:00FILE "20. Lalo Schifrin – The Spy.wav" WAVE TRACK 20 AUDIO TITLE "The Spy" PERFORMER "Lalo Schifrin" INDEX 01 00:00:00FILE "21. Lalo Schifrin – Two Couples.wav" WAVE TRACK 21 AUDIO TITLE "Two Couples" PERFORMER "Lalo Schifrin" INDEX 01 00:00:00FILE "22. Lalo Schifrin – Stan's Plan.wav" WAVE TRACK 22 AUDIO TITLE "Stan's Plan" PERFORMER "Lalo Schifrin" INDEX 01 00:00:00FILE "23. Lalo Schifrin – Stan's Habit.wav" WAVE TRACK 23 AUDIO TITLE "Stan's Habit" PERFORMER "Lalo Schifrin" INDEX 01 00:00:00


Трекер:  [ 29-Дек-2010 22:31 ]

  

Скачать .torrent

Размер .torrent файла 21 KB


Размер: 239 MB
Хэш (hash) релиза: 55dbcb33685415686d69e15b8c8d7c13d701a72e

Торренты, похожие на After The Sunset | После заката скачать торрент

Форум Название Автор Размер S L Добавлен
Саундтреки к фильмам и мультфильмам (mp3) ·· (Score) После заката / After The Sunset [Promo] (by Lalo Schifrin) - 2004, MP3 (tracks), 320 kbps Galfimbul 109853763105 MB 0 0 1326738711

21:31

16-Янв-12

bot

Топик был перенесен в форум Саундтреки к фильмам и мультфильмам (lossless)

Перенес AqvaGen

Хотите добавить комментарий к записи скачать торрент After The Sunset | После заката

!Обратная связь