Скачать через торрент музыку Робин Гуд: Принц воров Robin Hood: Prince of Thieves бесплатно без регистрации torrent

Если у вас наблюдаются проблемы со скриншотами, переходом по ссылками, скачиванием торрентов - проблемы в блокировщике рекламы AdBlock. #хорошегоДня!


Статистика раздачи
Размер:  134 MB   |    Зарегистрирован:  6 лет 2 месяца   |    .torrent скачан:  40 раз   |   
Раздают:  1  
   
Загрузка...
 
Автор Сообщение

Galfimbul

avatar Galfimbul


Bryan Adams - (Everything I Do) I Do It For You (CD-Maxi)
From The Motion Picture "Робин Гуд: Принц воров / Robin Hood: Prince of Thieves"
Жанр: Soundtrack
Год выпуска диска: 1991
Страна-производитель диска: Germany
Издатель (лейбл): A&M Records
Номер по каталогу: 390 789-2
EAN/UPC: 082839078924

Аудио кодек: FLAC (*.flac)
Тип рипа: image+.cue
Битрейт аудио: lossless
Продолжительность: 19:58

Источник: собственный рип
Наличие сканов в содержимом раздачи: да (600dpi)

Треклист:
01. (Everything I Do) I Do It For You (Single Version) [0:04:12.30]
02. She's Only Happy When She's Dancing (Live) [0:03:33.20]
03. Cuts Like A Knife (Live) [0:05:37.82]
04. (Everything I Do) I Do It For You [0:06:35.20]

Доп. информация:
Сингл Брайна Адамса к саундтреку "Robin Hood: Prince of Thieves".
 
Exact Audio Copy V0.99 prebeta 5 from 4. May 2009

EAC extraction logfile from 19. October 2010, 23:28

Bryan Adams / (Everything I Do) I Do It For You (CDM)

Used drive : HL-DT-STDVDRAM_GSA-T20N Adapter: 0 ID: 0

Read mode : SecureUtilize accurate stream : YesDefeat audio cache : YesMake use of C2 pointers : No

Read offset correction : 667Overread into Lead-In and Lead-Out : NoFill up missing offset samples with silence : YesDelete leading and trailing silent blocks : NoNull samples used in CRC calculations : YesUsed interface : Native Win32 interface for Win NT & 2000

Used output format : User Defined EncoderSelected bitrate : 1024 kBit/sQuality : HighAdd ID3 tag : NoCommand line compressor : C:\Program Files\Exact Audio Copy\Flac\flac.exeAdditional command line options : -8 -V %s

TOC of the extracted CD

Track | Start | Length | Start sector | End sector --------------------------------------------------------- 1 | 0:00.32 | 4:12.23 | 32 | 18954 2 | 4:12.55 | 3:33.15 | 18955 | 34944 3 | 7:45.70 | 5:37.62 | 34945 | 60281 4 | 13:23.57 | 6:35.15 | 60282 | 89921

Range status and errors

Selected range

Filename C:\Music\Bryan Adams - (Everything I Do) I Do It For You (CDM).wav

Peak level 97.3 % Range quality 100.0 % Test CRC B549E58B Copy CRC B549E58B Copy OK

No errors occurred

AccurateRip summary

Track 1 accurately ripped (confidence 40) [E7A27F65]Track 2 accurately ripped (confidence 38) [41D57809]Track 3 accurately ripped (confidence 39) [89CF11BF]Track 4 accurately ripped (confidence 39) [A615B544]

All tracks accurately ripped

End of status report


Трекер:  [ 08-Июл-2011 18:17 ]

  

Скачать .torrent

Размер .torrent файла 11 KB


Размер: 134 MB
Хэш (hash) релиза: 4d2dd795e379bc8babdaf819d7804987c7069181

Еще никто не оставлял запись к записи скачать торрент Робин Гуд: Принц воров Robin Hood: Prince of Thieves . Будь первым!

!Обратная связь