Скачать через торрент музыку Henry Mancini, Michael Kamen - Lifeforce бесплатно без регистрации torrent

Если у вас наблюдаются проблемы со скриншотами, переходом по ссылками, скачиванием торрентов - проблемы в блокировщике рекламы AdBlock. #хорошегоДня!


Статистика раздачи
Размер:  741 MB   |    Зарегистрирован:  6 лет 2 месяца   |    .torrent скачан:  45 раз   |   
Раздают:  1  
   
Загрузка...
 
Автор Сообщение

Galfimbul

avatar Galfimbul


Henry Mancini, Michael Kamen - Lifeforce

Жанр: Score
Год выпуска диска: 2006
Аудио кодек: FLAC
Тип рипа: tracks+.cue
Битрейт аудио: lossless
1. Main Title: Lifeforce Theme (02:23)
2. The Discovery (Parts 1-5) (16:00)
3. Drained (00:59)
4. Rescue Mission (04:24)
5. The Vampire Lives (06:41)
6. Nervous Time / No Longer Dangerous (01:43)
7. Feeding Time (03:01)
8. Wild Woman (01:33)
9. Prelude To Carlson's Story (00:39)
10. Carlson's Story (04:11)
11. Carlson Sleeps (01:01)
12. Evil Visitation (02:19)
13. Energy Crisis (03:28)
14. It's Immense (01:42)
15. Are You In There ? (01:21)
16. Let Me Go ! (02:36)
17. Chain Reaction (01:04)
18. Anyone For Tums ? (01:28)
19. Horny Alien / London Burns (03:43)
20. It's Martial Law (02:07)
21. Indian Giver (02:16)
22. Call Of The Wild (01:59)
23. House Of Blue Lights (01:14)
 
Exact Audio Copy V0.99 prebeta 4 from 23. January 2008

EAC extraction logfile from 19. April 2009, 17:53

Henri Mancini / Lifeforce Expanded (Complete Original Score)

Used drive : _NEC DVD+-RW ND-3450A Adapter: 0 ID: 0

Read mode : SecureUtilize accurate stream : YesDefeat audio cache : YesMake use of C2 pointers : No

Read offset correction : 48Overread into Lead-In and Lead-Out : NoFill up missing offset samples with silence : YesDelete leading and trailing silent blocks : NoNull samples used in CRC calculations : YesUsed interface : Native Win32 interface for Win NT & 2000Gap handling : Appended to previous track

Used output format : Internal WAV RoutinesSample format : 44.100 Hz; 16 Bit; Stereo

TOC of the extracted CD

Track | Start | Length | Start sector | End sector --------------------------------------------------------- 1 | 0:00.00 | 2:25.08 | 0 | 10882 2 | 2:25.08 | 16:02.01 | 10883 | 83033 3 | 18:27.09 | 1:01.02 | 83034 | 87610 4 | 19:28.11 | 4:26.42 | 87611 | 107602 5 | 23:54.53 | 6:43.54 | 107603 | 137881 6 | 30:38.32 | 1:45.70 | 137882 | 145826 7 | 32:24.27 | 3:03.20 | 145827 | 159571 8 | 35:27.47 | 1:35.69 | 159572 | 166765 9 | 37:03.41 | 0:41.73 | 166766 | 169913 10 | 37:45.39 | 4:13.64 | 169914 | 188952 11 | 41:59.28 | 1:03.29 | 188953 | 193706 12 | 43:02.57 | 2:21.44 | 193707 | 204325 13 | 45:24.26 | 3:30.61 | 204326 | 220136 14 | 48:55.12 | 1:44.34 | 220137 | 227970 15 | 50:39.46 | 1:23.73 | 227971 | 234268 16 | 52:03.44 | 2:38.10 | 234269 | 246128 17 | 54:41.54 | 1:06.14 | 246129 | 251092 18 | 55:47.68 | 1:30.01 | 251093 | 257843 19 | 57:17.69 | 3:45.25 | 257844 | 274743 20 | 61:03.19 | 2:09.74 | 274744 | 284492 21 | 63:13.18 | 2:18.35 | 284493 | 294877 22 | 65:31.53 | 2:01.13 | 294878 | 303965 23 | 67:32.66 | 1:14.39 | 303966 | 309554

Track 1

Filename D:\_Temp9\Lifeforce\CD1\01 - Main Title.wav

Pre-gap length 0:00:02.00

Peak level 99.2 % Track quality 99.9 % Test CRC FF1A0BCF Copy CRC FF1A0BCF Copy OK

Track 2

Filename D:\_Temp9\Lifeforce\CD1\02 - The Discovery.wav

Pre-gap length 0:00:02.00

Peak level 94.3 % Track quality 99.9 % Test CRC 0EFCF290 Copy CRC 0EFCF290 Copy OK

Track 3

Filename D:\_Temp9\Lifeforce\CD1\03 - Drained.wav

Pre-gap length 0:00:02.00

Peak level 58.4 % Track quality 100.0 % Test CRC FA6D8941 Copy CRC FA6D8941 Copy OK

Track 4

Filename D:\_Temp9\Lifeforce\CD1\04 - Rescue Mission.wav

Pre-gap length 0:00:02.00

Peak level 64.4 % Track quality 100.0 % Test CRC 26C85A15 Copy CRC 26C85A15 Copy OK

Track 5

Filename D:\_Temp9\Lifeforce\CD1\05 - The Vampire.wav

Pre-gap length 0:00:02.00

Peak level 98.7 % Track quality 100.0 % Test CRC 8EF086CC Copy CRC 8EF086CC Copy OK

Track 6

Filename D:\_Temp9\Lifeforce\CD1\06 - Nervous Time - No Longer Dangerous.wav

Pre-gap length 0:00:02.00

Peak level 87.7 % Track quality 99.8 % Test CRC 9D476022 Copy CRC 9D476022 Copy OK

Track 7

Filename D:\_Temp9\Lifeforce\CD1\07 - Feeding Time.wav

Pre-gap length 0:00:02.00

Peak level 99.4 % Track quality 99.9 % Test CRC D629C80F Copy CRC D629C80F Copy OK

Track 8

Filename D:\_Temp9\Lifeforce\CD1\08 - Wild Woman.wav

Pre-gap length 0:00:02.00

Peak level 99.3 % Track quality 100.0 % Test CRC E44D264A Copy CRC E44D264A Copy OK

Track 9

Filename D:\_Temp9\Lifeforce\CD1\09 - Prelude To Carlson's Story.wav

Pre-gap length 0:00:02.00

Peak level 22.3 % Track quality 100.0 % Test CRC F61B84B5 Copy CRC F61B84B5 Copy OK

Track 10

Filename D:\_Temp9\Lifeforce\CD1\10 - Carlson's Story.wav

Pre-gap length 0:00:02.00

Peak level 99.7 % Track quality 99.9 % Test CRC 0EAFC08B Copy CRC 0EAFC08B Copy OK

Track 11

Filename D:\_Temp9\Lifeforce\CD1\11 - Carlson Sleeps.wav

Pre-gap length 0:00:02.00

Peak level 63.1 % Track quality 99.8 % Test CRC EA58F62E Copy CRC EA58F62E Copy OK

Track 12

Filename D:\_Temp9\Lifeforce\CD1\12 - Evil Visitation.wav

Pre-gap length 0:00:02.00

Peak level 99.2 % Track quality 100.0 % Test CRC F3243650 Copy CRC F3243650 Copy OK

Track 13

Filename D:\_Temp9\Lifeforce\CD1\13 - Energy Crisis.wav

Pre-gap length 0:00:02.00

Peak level 79.6 % Track quality 100.0 % Test CRC DED1BB2C Copy CRC DED1BB2C Copy OK

Track 14

Filename D:\_Temp9\Lifeforce\CD1\14 - It's Immense.wav

Pre-gap length 0:00:02.00

Peak level 44.8 % Track quality 100.0 % Test CRC 6CAF86FC Copy CRC 6CAF86FC Copy OK

Track 15

Filename D:\_Temp9\Lifeforce\CD1\15 - Are You There .wav

Pre-gap length 0:00:02.00

Peak level 99.5 % Track quality 100.0 % Test CRC 99977DF3 Copy CRC 99977DF3 Copy OK

Track 16

Filename D:\_Temp9\Lifeforce\CD1\16 - Let Me Go!.wav

Pre-gap length 0:00:02.00

Peak level 99.9 % Track quality 100.0 % Test CRC EE888319 Copy CRC EE888319 Copy OK

Track 17

Filename D:\_Temp9\Lifeforce\CD1\17 - Chain Reaction.wav

Pre-gap length 0:00:02.00

Peak level 38.0 % Track quality 100.0 % Test CRC F7C30ABA Copy CRC F7C30ABA Copy OK

Track 18

Filename D:\_Temp9\Lifeforce\CD1\18 - Anyone For Tums .wav

Pre-gap length 0:00:02.00

Peak level 99.7 % Track quality 99.8 % Test CRC 4913ED49 Copy CRC 4913ED49 Copy OK

Track 19

Filename D:\_Temp9\Lifeforce\CD1\19 - Horny Alien - London Burns.wav

Pre-gap length 0:00:02.00

Peak level 99.7 % Track quality 100.0 % Test CRC 9CA23119 Copy CRC 9CA23119 Copy OK

Track 20

Filename D:\_Temp9\Lifeforce\CD1\20 - It's Martial Law.wav

Pre-gap length 0:00:01.98

Peak level 93.8 % Track quality 100.0 % Test CRC 1FD7C7B1 Copy CRC 1FD7C7B1 Copy OK

Track 21

Filename D:\_Temp9\Lifeforce\CD1\21 - Indian Giver.wav

Pre-gap length 0:00:02.00

Peak level 87.4 % Track quality 99.9 % Test CRC 5685D201 Copy CRC 5685D201 Copy OK

Track 22

Filename D:\_Temp9\Lifeforce\CD1\22 - Call Of The Wild.wav

Pre-gap length 0:00:02.00

Peak level 95.3 % Track quality 99.9 % Test CRC E38E54D8 Copy CRC E38E54D8 Copy OK

Track 23

Filename D:\_Temp9\Lifeforce\CD1\23 - House Of Blue Lights.wav

Pre-gap length 0:00:02.00

Peak level 90.1 % Track quality 100.0 % Test CRC C498CFA3 Copy CRC C498CFA3 Copy OK

No errors occurred

End of status report
1. Web Of Destiny (02:54)
2. Son Of Web (03:06)
3. Grandson Of Web: LIFEFORCE End Credits (07:39)
Disc 1 (1-23) & Disc 2 (1-3) original score by Henry Mancini
4. Interior Alien Craft (01:21)
5. Passage Of Time / Back (00:43)
6. Rescue Mission (03:01)
7. Guard Enters Autopsy Room / Alien Girl-Eyes Open / Alien Girl Approaches Guard / Guards React To Alien Girl / Window Blows Out (07:33)
8. Caine's Theme / Fallada's Office / Int-Basement Quarantine Room / Caine And Fallada Reaction & Run To The Basement (03:43)
9. After Autopsy (01:22)
10. Hypnosis (01:12)
11. London In Chaos (00:34)
Disc 2 (4-11) additional music by Michael Kamen
12. Grandson Of Web: Film Version With Choir (04:11)
BONUS TRACK (Damaged)
13. Theme (03:31)
14. Visitation (02:17)
15. Part. 1: Spacewalk (04:41)
16. Part. 2: Into The Alien Craft (03:05)
17. Part. 3: Exploration (02:46)
18. Part. 4: Sleeping Vampires (02:54)
19. Carlson's Story (04:09)
20. Girl In Raincoat (03:25)
21. Web Of Destiny Part 1 (02:53)
22. Web Of Destiny Part 2 (02:52)
23. Web Of Destiny Part 3 (04:09)
 
Exact Audio Copy V0.99 prebeta 4 from 23. January 2008

EAC extraction logfile from 19. April 2009, 18:23

Henri Mancini / Lifeforce (Complete Original Score - Additional Music by Michael Kamen - Original Soundtrack)

Used drive : _NEC DVD+-RW ND-3450A Adapter: 0 ID: 0

Read mode : SecureUtilize accurate stream : YesDefeat audio cache : YesMake use of C2 pointers : No

Read offset correction : 48Overread into Lead-In and Lead-Out : NoFill up missing offset samples with silence : YesDelete leading and trailing silent blocks : NoNull samples used in CRC calculations : YesUsed interface : Native Win32 interface for Win NT & 2000Gap handling : Appended to previous track

Used output format : Internal WAV RoutinesSample format : 44.100 Hz; 16 Bit; Stereo

TOC of the extracted CD

Track | Start | Length | Start sector | End sector --------------------------------------------------------- 1 | 0:00.00 | 2:55.07 | 0 | 13131 2 | 2:55.07 | 3:07.41 | 13132 | 27197 3 | 6:02.48 | 7:43.45 | 27198 | 61967 4 | 13:46.18 | 1:23.00 | 61968 | 68192 5 | 15:09.18 | 0:45.62 | 68193 | 71629 6 | 15:55.05 | 3:03.51 | 71630 | 85405 7 | 18:58.56 | 7:35.71 | 85406 | 119601 8 | 26:34.52 | 3:45.01 | 119602 | 136477 9 | 30:19.53 | 1:24.19 | 136478 | 142796 10 | 31:43.72 | 1:14.27 | 142797 | 148373 11 | 32:58.24 | 0:38.05 | 148374 | 151228 12 | 33:36.29 | 4:13.04 | 151229 | 170207 13 | 37:49.33 | 3:33.34 | 170208 | 186216 14 | 41:22.67 | 2:19.74 | 186217 | 196715 15 | 43:42.66 | 4:43.63 | 196716 | 218003 16 | 48:26.54 | 3:07.19 | 218004 | 232047 17 | 51:33.73 | 2:48.68 | 232048 | 244715 18 | 54:22.66 | 2:56.03 | 244716 | 257918 19 | 57:18.69 | 4:11.01 | 257919 | 276744 20 | 61:29.70 | 3:27.38 | 276745 | 292307 21 | 64:57.33 | 2:55.26 | 292308 | 305458 22 | 67:52.59 | 2:54.62 | 305459 | 318570 23 | 70:47.46 | 4:09.00 | 318571 | 337245

Track 1

Filename D:\_Temp9\Lifeforce\CD2\01 - Web Of Destiny.wav

Pre-gap length 0:00:02.00

Peak level 97.3 % Track quality 100.0 % Test CRC B5F0A427 Copy CRC B5F0A427 Copy OK

Track 2

Filename D:\_Temp9\Lifeforce\CD2\02 - Son Of Web.wav

Pre-gap length 0:00:00.66

Peak level 91.0 % Track quality 100.0 % Test CRC 327BEBDF Copy CRC 327BEBDF Copy OK

Track 3

Filename D:\_Temp9\Lifeforce\CD2\03 - Grandson Of Web- Lifeforce End Credits.wav

Pre-gap length 0:00:00.66

Peak level 96.6 % Track quality 100.0 % Test CRC 4B14F031 Copy CRC 4B14F031 Copy OK

Track 4

Filename D:\_Temp9\Lifeforce\CD2\04 - Additional Music by Michael Kamen - Interior Alien Craft.wav

Pre-gap length 0:00:04.00

Peak level 78.8 % Track quality 99.8 % Test CRC BACB8184 Copy CRC BACB8184 Copy OK

Track 5

Filename D:\_Temp9\Lifeforce\CD2\05 - Additional Music by Michael Kamen - Passage Of Time - Back.wav

Pre-gap length 0:00:02.00

Peak level 89.8 % Track quality 99.7 % Test CRC D52C2803 Copy CRC D52C2803 Copy OK

Track 6

Filename D:\_Temp9\Lifeforce\CD2\06 - Additional Music by Michael Kamen - Rescue Mission.wav

Pre-gap length 0:00:02.00

Peak level 72.4 % Track quality 100.0 % Test CRC 1D29CA2D Copy CRC 1D29CA2D Copy OK

Track 7

Filename D:\_Temp9\Lifeforce\CD2\07 - Additional Music by Michael Kamen - Guard Enters Autopsy Room.wav

Pre-gap length 0:00:02.00

Peak level 90.4 % Track quality 100.0 % Test CRC 5D2E9161 Copy CRC 5D2E9161 Copy OK

Track 8

Filename D:\_Temp9\Lifeforce\CD2\08 - Additional Music by Michael Kamen - Caine's Theme.wav

Pre-gap length 0:00:02.00

Peak level 94.5 % Track quality 100.0 % Test CRC B6844FB3 Copy CRC B6844FB3 Copy OK

Track 9

Filename D:\_Temp9\Lifeforce\CD2\09 - Additional Music by Michael Kamen - After Autopsy.wav

Pre-gap length 0:00:02.00

Peak level 63.2 % Track quality 100.0 % Test CRC 55E35A3F Copy CRC 55E35A3F Copy OK

Track 10

Filename D:\_Temp9\Lifeforce\CD2\10 - Additional Music by Michael Kamen - Hypnosis.wav

Pre-gap length 0:00:02.00

Peak level 83.1 % Track quality 99.8 % Test CRC 5BA3B82C Copy CRC 5BA3B82C Copy OK

Track 11

Filename D:\_Temp9\Lifeforce\CD2\11 - Additional Music by Michael Kamen - London In Chaos.wav

Pre-gap length 0:00:02.00

Peak level 75.3 % Track quality 100.0 % Test CRC 78E9BB71 Copy CRC 78E9BB71 Copy OK

Track 12

Filename D:\_Temp9\Lifeforce\CD2\12 - Bonus Track (Damaged) - Grandson Of Web- Film Version With Choir.wav

Pre-gap length 0:00:04.00

Peak level 99.1 % Track quality 100.0 % Test CRC 638C82DA Copy CRC 638C82DA Copy OK

Track 13

Filename D:\_Temp9\Lifeforce\CD2\13 - Original Soundtrack - Theme.wav

Pre-gap length 0:00:02.00

Peak level 99.2 % Track quality 100.0 % Test CRC 100A849E Copy CRC 100A849E Copy OK

Track 14

Filename D:\_Temp9\Lifeforce\CD2\14 - Original Soundtrack - Visitation.wav

Pre-gap length 0:00:02.00

Peak level 89.1 % Track quality 100.0 % Test CRC BEADCC5D Copy CRC BEADCC5D Copy OK

Track 15

Filename D:\_Temp9\Lifeforce\CD2\15 - Original Soundtrack - The Discovery - Part 1- Spacewalk.wav

Pre-gap length 0:00:02.00

Peak level 84.8 % Track quality 100.0 % Test CRC 352844F6 Copy CRC 352844F6 Copy OK

Track 16

Filename D:\_Temp9\Lifeforce\CD2\16 - Original Soundtrack - The Discovery - Part 2- Into The Alien Craft.wav

Pre-gap length 0:00:02.00

Peak level 73.6 % Track quality 100.0 % Test CRC 758EEC1A Copy CRC 758EEC1A Copy OK

Track 17

Filename D:\_Temp9\Lifeforce\CD2\17 - Original Soundtrack - The Discovery - Part 3- Exploration.wav

Pre-gap length 0:00:02.00

Peak level 88.0 % Track quality 100.0 % Test CRC 653F1E2E Copy CRC 653F1E2E Copy OK

Track 18

Filename D:\_Temp9\Lifeforce\CD2\18 - Original Soundtrack - The Discovery - Part 4- Sleeping Vampires.wav

Pre-gap length 0:00:02.00

Peak level 80.4 % Track quality 100.0 % Test CRC E7D3DE2D Copy CRC E7D3DE2D Copy OK

Track 19

Filename D:\_Temp9\Lifeforce\CD2\19 - Original Soundtrack - The Discovery - Part 5- Carlson's Story.wav

Pre-gap length 0:00:02.00

Peak level 99.0 % Track quality 100.0 % Test CRC 4695A80E Copy CRC 4695A80E Copy OK

Track 20

Filename D:\_Temp9\Lifeforce\CD2\20 - Original Soundtrack - The Discovery - Part 6- Girl In Raincoat.wav

Pre-gap length 0:00:02.00

Peak level 97.6 % Track quality 100.0 % Test CRC FCE92D61 Copy CRC FCE92D61 Copy OK

Track 21

Filename D:\_Temp9\Lifeforce\CD2\21 - Original Soundtrack - Web Of Destiny - Part 1.wav

Pre-gap length 0:00:02.00

Peak level 93.3 % Track quality 100.0 % Test CRC 1E73FC43 Copy CRC 1E73FC43 Copy OK

Track 22

Filename D:\_Temp9\Lifeforce\CD2\22 - Original Soundtrack - Web Of Destiny - Part 2.wav

Pre-gap length 0:00:02.00

Peak level 96.0 % Track quality 100.0 % Test CRC EE16848E Copy CRC EE16848E Copy OK

Track 23

Filename D:\_Temp9\Lifeforce\CD2\23 - Original Soundtrack - Web Of Destiny - Part 3.wav

Pre-gap length 0:00:02.00

Peak level 99.5 % Track quality 100.0 % Test CRC 37EB2DE5 Copy CRC 37EB2DE5 Copy OK

No errors occurred

End of status report


Трекер:  [ 08-Июл-2011 18:17 ]

  

Скачать .torrent

Размер .torrent файла 19 KB


Размер: 741 MB
Хэш (hash) релиза: a9da072ffa32635f9fa75af7900d3e41cd19b5c0

Еще никто не оставлял запись к записи скачать торрент Henry Mancini, Michael Kamen - Lifeforce . Будь первым!

!Обратная связь