Скачать через торрент музыку Жажда Bakjwi бесплатно без регистрации torrent

Если у вас наблюдаются проблемы со скриншотами, переходом по ссылками, скачиванием торрентов - проблемы в блокировщике рекламы AdBlock. #хорошегоДня!


Статистика раздачи
Размер:  262 MB   |    Зарегистрирован:  6 лет 7 месяцев   |    .torrent скачан:  43 раза   |   
Раздают:  1  
   
Загрузка...
 
Автор Сообщение

FRANKS

avatar FRANKS


Жажда / Bakjwi / Thirst

Жанр: Score
Композитор: Jo Yeong-Wook
Год выпуска диска: 2009
Страна-производитель диска: South Korea
Издатель (лейбл): FarGo Music
Аудио кодек: FLAC (*.flac)
Тип рипа: tracks+.cue
Битрейт аудио: lossless
Продолжительность: 47-mins 10-secs
Наличие сканов в содержимом раздачи: нет

Треклист:
01. Thirst Cantata (01:45)
02. Africa (01:21)
03. Sang-hyun’s Prayer (01:32)
04. Resurrection (01:14)
05. Just One Sip (00:40)
06. Lust (00:57)
07. Bach On Radio (01:17)
08. Shadow Home (03:16)
09. Under A Streetlight (01:36)
10. Sang-Hyun (01:04)
11. Cries Came To The Wharf (04:00)
12. The Wrong Encounter (00:45)
13. Gloomy Street (01:06)
14. On Sundays (02:00)
15. A Cute Vampire (02:01)
16. Murder At The Lakeshore (03:26)
17. Mom, Please Forgive Me (01:07)
18. I’m Nothing (01:54)
19. A Guilty Conscience (01:11)
20. Kang-Woo Comes Back (00:39)
21. I Want To Go To My Husband (01:10)
22. Happy Birthday (03:42)
23. Tae-ju (01:14)
24. Mrs. Ra (01:47)
25. Thirst Cantata with Strings (01:51)
26. Home (03:07)
27. Sang-Hyun’s Prayer (01:31)
 
Exact Audio Copy V0.99 prebeta 5 from 4. May 2009

EAC extraction logfile from 2. October 2010, 18:45

Jo Yeong-Wook / Thirst

Used drive : MATSHITAUJ-845D Adapter: 1 ID: 0

Read mode : SecureUtilize accurate stream : YesDefeat audio cache : YesMake use of C2 pointers : No

Read offset correction : 102Overread into Lead-In and Lead-Out : NoFill up missing offset samples with silence : YesDelete leading and trailing silent blocks : NoNull samples used in CRC calculations : YesUsed interface : Installed external ASPI interfaceGap handling : Appended to previous track

Used output format : User Defined EncoderSelected bitrate : 128 kBit/sQuality : HighAdd ID3 tag : NoCommand line compressor : C:\Program Files\Exact Audio Copy\Flac\flac.exeAdditional command line options : -8 -V -T "ARTIST=%a" -T "TITLE=%t" -T "ALBUM=%g" -T "DATE=%y" -T "TRACKNUMBER=%n" -T "GENRE=%m" -T "COMMENT=EAC FLAC -8" %s

TOC of the extracted CD

Track | Start | Length | Start sector | End sector --------------------------------------------------------- 1 | 0:00.00 | 1:44.39 | 0 | 7838 2 | 1:44.39 | 1:21.07 | 7839 | 13920 3 | 3:05.46 | 1:31.57 | 13921 | 20802 4 | 4:37.28 | 1:14.03 | 20803 | 26355 5 | 5:51.31 | 0:40.23 | 26356 | 29378 6 | 6:31.54 | 0:57.10 | 29379 | 33663 7 | 7:28.64 | 1:17.32 | 33664 | 39470 8 | 8:46.21 | 3:15.67 | 39471 | 54162 9 | 12:02.13 | 1:35.32 | 54163 | 61319 10 | 13:37.45 | 1:03.42 | 61320 | 66086 11 | 14:41.12 | 4:00.03 | 66087 | 84089 12 | 18:41.15 | 0:45.30 | 84090 | 87494 13 | 19:26.45 | 1:05.52 | 87495 | 92421 14 | 20:32.22 | 1:59.38 | 92422 | 101384 15 | 22:31.60 | 2:01.20 | 101385 | 110479 16 | 24:33.05 | 3:25.54 | 110480 | 125908 17 | 27:58.59 | 1:07.08 | 125909 | 130941 18 | 29:05.67 | 1:53.45 | 130942 | 139461 19 | 30:59.37 | 1:11.03 | 139462 | 144789 20 | 32:10.40 | 0:39.00 | 144790 | 147714 21 | 32:49.40 | 1:09.48 | 147715 | 152937 22 | 33:59.13 | 3:41.73 | 152938 | 169585 23 | 37:41.11 | 1:13.73 | 169586 | 175133 24 | 38:55.09 | 1:46.44 | 175134 | 183127 25 | 40:41.53 | 1:51.04 | 183128 | 191456 26 | 42:32.57 | 3:06.62 | 191457 | 205468 27 | 45:39.44 | 1:30.70 | 205469 | 212288

Track 1

Filename D:\Thirst OST CD FGM 3303\01. Jo Yeong-Wook - Thirst Cantata.wav

Pre-gap length 0:00:02.00

Peak level 99.8 % Track quality 100.0 % Test CRC 25C70215 Copy CRC 25C70215 Copy OK

Track 2

Filename D:\Thirst OST CD FGM 3303\02. Jo Yeong-Wook - Africa.wav

Pre-gap length 0:00:01.74

Peak level 95.1 % Track quality 99.8 % Test CRC 136DA9EA Copy CRC 136DA9EA Copy OK

Track 3

Filename D:\Thirst OST CD FGM 3303\03. Jo Yeong-Wook - Sang-Hyun's Prayer.wav

Pre-gap length 0:00:01.74

Peak level 100.0 % Track quality 100.0 % Test CRC F094C943 Copy CRC F094C943 Copy OK

Track 4

Filename D:\Thirst OST CD FGM 3303\04. Jo Yeong-Wook - Resurrection.wav

Peak level 100.0 % Track quality 99.8 % Test CRC D74D1ACC Copy CRC D74D1ACC Copy OK

Track 5

Filename D:\Thirst OST CD FGM 3303\05. Jo Yeong-Wook - Just One Sip.wav

Pre-gap length 0:00:01.74

Peak level 99.1 % Track quality 99.7 % Test CRC BEA354D1 Copy CRC BEA354D1 Copy OK

Track 6

Filename D:\Thirst OST CD FGM 3303\06. Jo Yeong-Wook - Lust.wav

Pre-gap length 0:00:01.74

Peak level 64.7 % Track quality 99.6 % Test CRC 0D1F1213 Copy CRC 0D1F1213 Copy OK

Track 7

Filename D:\Thirst OST CD FGM 3303\07. Jo Yeong-Wook - Bach On Radio.wav

Pre-gap length 0:00:01.10

Peak level 100.0 % Track quality 99.6 % Test CRC CA755394 Copy CRC CA755394 Copy OK

Track 8

Filename D:\Thirst OST CD FGM 3303\08. Jo Yeong-Wook - Shadow Home.wav

Pre-gap length 0:00:01.04

Peak level 92.8 % Track quality 99.8 % Test CRC 0AE168E6 Copy CRC 0AE168E6 Copy OK

Track 9

Filename D:\Thirst OST CD FGM 3303\09. Jo Yeong-Wook - Under a Streetlight.wav

Pre-gap length 0:00:01.10

Peak level 99.7 % Track quality 99.6 % Test CRC 663EB5DE Copy CRC 663EB5DE Copy OK

Track 10

Filename D:\Thirst OST CD FGM 3303\10. Jo Yeong-Wook - Sang-Hyun.wav

Pre-gap length 0:00:01.74

Peak level 99.8 % Track quality 99.4 % Test CRC 79FC4E2C Copy CRC 79FC4E2C Copy OK

Track 11

Filename D:\Thirst OST CD FGM 3303\11. Jo Yeong-Wook - Cries Came to the Wharf.wav

Pre-gap length 0:00:01.74

Peak level 98.9 % Track quality 99.8 % Test CRC A07AF16E Copy CRC A07AF16E Copy OK

Track 12

Filename D:\Thirst OST CD FGM 3303\12. Jo Yeong-Wook - The Wrong Encounter.wav

Pre-gap length 0:00:02.13

Peak level 62.6 % Track quality 99.1 % Test CRC 59A99037 Copy CRC 59A99037 Copy OK

Track 13

Filename D:\Thirst OST CD FGM 3303\13. Jo Yeong-Wook - Gloomy Street.wav

Pre-gap length 0:00:01.74

Peak level 93.4 % Track quality 99.2 % Test CRC 854E01D1 Copy CRC 854E01D1 Copy OK

Track 14

Filename D:\Thirst OST CD FGM 3303\14. Jo Yeong-Wook - On Sundays.wav

Pre-gap length 0:00:01.74

Peak level 100.0 % Track quality 99.6 % Test CRC 78B32815 Copy CRC 78B32815 Copy OK

Track 15

Filename D:\Thirst OST CD FGM 3303\15. Jo Yeong-Wook - A Cute Vampire.wav

Pre-gap length 0:00:01.74

Peak level 100.0 % Track quality 99.6 % Test CRC DAF063A0 Copy CRC DAF063A0 Copy OK

Track 16

Filename D:\Thirst OST CD FGM 3303\16. Jo Yeong-Wook - Murder at the Lakeshore.wav

Pre-gap length 0:00:01.74

Peak level 99.8 % Track quality 99.5 % Test CRC CBE2F76A Copy CRC CBE2F76A Copy OK

Track 17

Filename D:\Thirst OST CD FGM 3303\17. Jo Yeong-Wook - Mom, Please Forgive Me.wav

Pre-gap length 0:00:01.19

Peak level 100.0 % Track quality 99.3 % Test CRC 2C58FDFE Copy CRC 2C58FDFE Copy OK

Track 18

Filename D:\Thirst OST CD FGM 3303\18. Jo Yeong-Wook - I'm Nothing.wav

Pre-gap length 0:00:01.74

Peak level 100.0 % Track quality 99.6 % Test CRC 7FA0CC85 Copy CRC 7FA0CC85 Copy OK

Track 19

Filename D:\Thirst OST CD FGM 3303\19. Jo Yeong-Wook - A Guilty Conscience.wav

Pre-gap length 0:00:01.74

Peak level 99.1 % Track quality 99.2 % Test CRC 89C9E441 Copy CRC 89C9E441 Copy OK

Track 20

Filename D:\Thirst OST CD FGM 3303\20. Jo Yeong-Wook - Kang-Woo Comes Back.wav

Pre-gap length 0:00:01.72

Peak level 96.2 % Track quality 99.0 % Test CRC BB61F3DF Copy CRC BB61F3DF Copy OK

Track 21

Filename D:\Thirst OST CD FGM 3303\21. Jo Yeong-Wook - I Want to Go to My Husband.wav

Pre-gap length 0:00:01.74

Peak level 99.7 % Track quality 99.2 % Test CRC F2D5C983 Copy CRC F2D5C983 Copy OK

Track 22

Filename D:\Thirst OST CD FGM 3303\22. Jo Yeong-Wook - Happy Birthday.wav

Pre-gap length 0:00:01.74

Peak level 100.0 % Track quality 99.5 % Test CRC 8DEF059C Copy CRC 8DEF059C Copy OK

Track 23

Filename D:\Thirst OST CD FGM 3303\23. Jo Yeong-Wook - Tae-Ju.wav

Pre-gap length 0:00:01.13

Peak level 99.8 % Track quality 99.2 % Test CRC 0071B9CA Copy CRC 0071B9CA Copy OK

Track 24

Filename D:\Thirst OST CD FGM 3303\24. Jo Yeong-Wook - Mrs.Ra.wav

Pre-gap length 0:00:01.38

Peak level 100.0 % Track quality 99.3 % Test CRC 7D0E028A Copy CRC 7D0E028A Copy OK

Track 25

Filename D:\Thirst OST CD FGM 3303\25. Jo Yeong-Wook - Thirst Cantata with Strings.wav

Pre-gap length 0:00:01.74

Peak level 100.0 % Track quality 99.3 % Test CRC 5EA5D158 Copy CRC 5EA5D158 Copy OK

Track 26

Filename D:\Thirst OST CD FGM 3303\26. Jo Yeong-Wook - Home.wav

Pre-gap length 0:00:01.74

Peak level 97.0 % Track quality 99.4 % Test CRC 0B1BF538 Copy CRC 0B1BF538 Copy OK

Track 27

Filename D:\Thirst OST CD FGM 3303\27. Jo Yeong-Wook - Sang-Hyun's Prayer.wav

Pre-gap length 0:00:01.51

Peak level 99.8 % Track quality 99.3 % Test CRC 8A76A506 Copy CRC 8A76A506 Copy OK

No errors occurred

End of status report
 
REM GENRE SoundtrackREM DATE 2009REM DISCID 6F0B0E1BREM COMMENT "ExactAudioCopy v0.99pb5"PERFORMER "Jo Yeong-Wook"TITLE "Thirst"FILE "01. Jo Yeong-Wook - Thirst Cantata.wav" WAVE TRACK 01 AUDIO TITLE "Thirst Cantata" PERFORMER "Jo Yeong-Wook" INDEX 01 00:00:00 TRACK 02 AUDIO TITLE "Africa" PERFORMER "Jo Yeong-Wook" INDEX 00 01:42:40FILE "02. Jo Yeong-Wook - Africa.wav" WAVE INDEX 01 00:00:00 TRACK 03 AUDIO TITLE "Sang-Hyun's Prayer" PERFORMER "Jo Yeong-Wook" INDEX 00 01:19:08FILE "03. Jo Yeong-Wook - Sang-Hyun's Prayer.wav" WAVE INDEX 01 00:00:00FILE "04. Jo Yeong-Wook - Resurrection.wav" WAVE TRACK 04 AUDIO TITLE "Resurrection" PERFORMER "Jo Yeong-Wook" INDEX 01 00:00:00 TRACK 05 AUDIO TITLE "Just One Sip" PERFORMER "Jo Yeong-Wook" INDEX 00 01:12:04FILE "05. Jo Yeong-Wook - Just One Sip.wav" WAVE INDEX 01 00:00:00 TRACK 06 AUDIO TITLE "Lust" PERFORMER "Jo Yeong-Wook" INDEX 00 00:38:24FILE "06. Jo Yeong-Wook - Lust.wav" WAVE INDEX 01 00:00:00 TRACK 07 AUDIO TITLE "Bach On Radio" PERFORMER "Jo Yeong-Wook" INDEX 00 00:56:00FILE "07. Jo Yeong-Wook - Bach On Radio.wav" WAVE INDEX 01 00:00:00 TRACK 08 AUDIO TITLE "Shadow Home" PERFORMER "Jo Yeong-Wook" INDEX 00 01:16:28FILE "08. Jo Yeong-Wook - Shadow Home.wav" WAVE INDEX 01 00:00:00 TRACK 09 AUDIO TITLE "Under a Streetlight" PERFORMER "Jo Yeong-Wook" INDEX 00 03:14:57FILE "09. Jo Yeong-Wook - Under a Streetlight.wav" WAVE INDEX 01 00:00:00 TRACK 10 AUDIO TITLE "Sang-Hyun" PERFORMER "Jo Yeong-Wook" INDEX 00 01:33:33FILE "10. Jo Yeong-Wook - Sang-Hyun.wav" WAVE INDEX 01 00:00:00 TRACK 11 AUDIO TITLE "Cries Came to the Wharf" PERFORMER "Jo Yeong-Wook" INDEX 00 01:01:43FILE "11. Jo Yeong-Wook - Cries Came to the Wharf.wav" WAVE INDEX 01 00:00:00 TRACK 12 AUDIO TITLE "The Wrong Encounter" PERFORMER "Jo Yeong-Wook" INDEX 00 03:57:65FILE "12. Jo Yeong-Wook - The Wrong Encounter.wav" WAVE INDEX 01 00:00:00 TRACK 13 AUDIO TITLE "Gloomy Street" PERFORMER "Jo Yeong-Wook" INDEX 00 00:43:31FILE "13. Jo Yeong-Wook - Gloomy Street.wav" WAVE INDEX 01 00:00:00 TRACK 14 AUDIO TITLE "On Sundays" PERFORMER "Jo Yeong-Wook" INDEX 00 01:03:53FILE "14. Jo Yeong-Wook - On Sundays.wav" WAVE INDEX 01 00:00:00 TRACK 15 AUDIO TITLE "A Cute Vampire" PERFORMER "Jo Yeong-Wook" INDEX 00 01:57:39FILE "15. Jo Yeong-Wook - A Cute Vampire.wav" WAVE INDEX 01 00:00:00 TRACK 16 AUDIO TITLE "Murder at the Lakeshore" PERFORMER "Jo Yeong-Wook" INDEX 00 01:59:21FILE "16. Jo Yeong-Wook - Murder at the Lakeshore.wav" WAVE INDEX 01 00:00:00 TRACK 17 AUDIO TITLE "Mom, Please Forgive Me" PERFORMER "Jo Yeong-Wook" INDEX 00 03:24:35FILE "17. Jo Yeong-Wook - Mom, Please Forgive Me.wav" WAVE INDEX 01 00:00:00 TRACK 18 AUDIO TITLE "I'm Nothing" PERFORMER "Jo Yeong-Wook" INDEX 00 01:05:09FILE "18. Jo Yeong-Wook - I'm Nothing.wav" WAVE INDEX 01 00:00:00 TRACK 19 AUDIO TITLE "A Guilty Conscience" PERFORMER "Jo Yeong-Wook" INDEX 00 01:51:46FILE "19. Jo Yeong-Wook - A Guilty Conscience.wav" WAVE INDEX 01 00:00:00 TRACK 20 AUDIO TITLE "Kang-Woo Comes Back" PERFORMER "Jo Yeong-Wook" INDEX 00 01:09:06FILE "20. Jo Yeong-Wook - Kang-Woo Comes Back.wav" WAVE INDEX 01 00:00:00 TRACK 21 AUDIO TITLE "I Want to Go to My Husband" PERFORMER "Jo Yeong-Wook" INDEX 00 00:37:01FILE "21. Jo Yeong-Wook - I Want to Go to My Husband.wav" WAVE INDEX 01 00:00:00 TRACK 22 AUDIO TITLE "Happy Birthday " PERFORMER "Jo Yeong-Wook" INDEX 00 01:07:49FILE "22. Jo Yeong-Wook - Happy Birthday.wav" WAVE INDEX 01 00:00:00 TRACK 23 AUDIO TITLE "Tae-Ju" PERFORMER "Jo Yeong-Wook" INDEX 00 03:40:60FILE "23. Jo Yeong-Wook - Tae-Ju.wav" WAVE INDEX 01 00:00:00 TRACK 24 AUDIO TITLE "Mrs.Ra" PERFORMER "Jo Yeong-Wook" INDEX 00 01:12:35FILE "24. Jo Yeong-Wook - Mrs.Ra.wav" WAVE INDEX 01 00:00:00 TRACK 25 AUDIO TITLE "Thirst Cantata with Strings" PERFORMER "Jo Yeong-Wook" INDEX 00 01:44:45FILE "25. Jo Yeong-Wook - Thirst Cantata with Strings.wav" WAVE INDEX 01 00:00:00 TRACK 26 AUDIO TITLE "Home" PERFORMER "Jo Yeong-Wook" INDEX 00 01:49:05FILE "26. Jo Yeong-Wook - Home.wav" WAVE INDEX 01 00:00:00 TRACK 27 AUDIO TITLE "Sang-Hyun's Prayer" PERFORMER "Jo Yeong-Wook" INDEX 00 03:05:11FILE "27. Jo Yeong-Wook - Sang-Hyun's Prayer.wav" WAVE INDEX 01 00:00:00
 
AUDIOCHECKER v2.0 beta (build 457) - by Dester - opdester@freemail.hu~~~~~~~~~~~~~~~~~~~~~~~~~~~~~~~~~~-=== НЕ РЕДАКТИРУЙТЕ ЭТОТ ФАЙЛ! ===-

Путь: ...\Thirst OST CD FGM 3303

01 -=- 01. Jo Yeong-Wook - Thirst Cantata.flac -=- CDDA (100%)02 -=- 02. Jo Yeong-Wook - Africa.flac -=- CDDA (100%)03 -=- 03. Jo Yeong-Wook - Sang-Hyun's Prayer.flac -=- CDDA (100%)04 -=- 04. Jo Yeong-Wook - Resurrection.flac -=- CDDA (100%)05 -=- 05. Jo Yeong-Wook - Just One Sip.flac -=- CDDA (100%)06 -=- 06. Jo Yeong-Wook - Lust.flac -=- CDDA (100%)07 -=- 07. Jo Yeong-Wook - Bach On Radio.flac -=- CDDA (100%)08 -=- 08. Jo Yeong-Wook - Shadow Home.flac -=- CDDA (100%)09 -=- 09. Jo Yeong-Wook - Under a Streetlight.flac -=- CD-DA (90%)10 -=- 10. Jo Yeong-Wook - Sang-Hyun.flac -=- CDDA (100%)11 -=- 11. Jo Yeong-Wook - Cries Came to the Wharf.flac -=- CDDA (100%)12 -=- 12. Jo Yeong-Wook - The Wrong Encounter.flac -=- CDDA (100%)13 -=- 13. Jo Yeong-Wook - Gloomy Street.flac -=- CD-DA (99%)14 -=- 14. Jo Yeong-Wook - On Sundays.flac -=- CDDA (100%)15 -=- 15. Jo Yeong-Wook - A Cute Vampire.flac -=- CDDA (100%)16 -=- 16. Jo Yeong-Wook - Murder at the Lakeshore.flac -=- CDDA (99%)17 -=- 17. Jo Yeong-Wook - Mom, Please Forgive Me.flac -=- CDDA (100%)18 -=- 18. Jo Yeong-Wook - I'm Nothing.flac -=- CDDA (99%)19 -=- 19. Jo Yeong-Wook - A Guilty Conscience.flac -=- CDDA (100%)20 -=- 20. Jo Yeong-Wook - Kang-Woo Comes Back.flac -=- CDDA (100%)21 -=- 21. Jo Yeong-Wook - I Want to Go to My Husband.flac -=- CDDA (100%)22 -=- 22. Jo Yeong-Wook - Happy Birthday.flac -=- CDDA (99%)23 -=- 23. Jo Yeong-Wook - Tae-Ju.flac -=- CDDA (100%)24 -=- 24. Jo Yeong-Wook - Mrs.Ra.flac -=- CDDA (100%)25 -=- 25. Jo Yeong-Wook - Thirst Cantata with Strings.flac -=- CDDA (100%)26 -=- 26. Jo Yeong-Wook - Home.flac -=- CDDA (100%)27 -=- 27. Jo Yeong-Wook - Sang-Hyun's Prayer.flac -=- CDDA (99%)

Сводка 98,88% CDDA

41036836


Трекер:  [ 30-Янв-2011 13:33 ]

  

Скачать .torrent

Размер .torrent файла 12 KB


Размер: 262 MB
Хэш (hash) релиза: 6712f71ac637a947ecdb3c9bf754eed170504514

bot

Топик был перенесен в форум Саундтреки к фильмам и мультфильмам (lossless)

Перенес FRANKS

Хотите добавить комментарий к записи скачать торрент Жажда Bakjwi

!Обратная связь