Скачать через торрент музыку Масада Masada бесплатно без регистрации torrent

Если у вас наблюдаются проблемы со скриншотами, переходом по ссылками, скачиванием торрентов - проблемы в блокировщике рекламы AdBlock. #хорошегоДня!


Статистика раздачи
Размер:  572 MB   |    Зарегистрирован:  6 лет 2 месяца   |    .torrent скачан:  37 раз   |   
Раздают:  1  
   
Загрузка...
 
Автор Сообщение

Galfimbul

avatar Galfimbul


Масада / Masada

Жанр: Score
Композиторы: Jerry Goldsmith & Morton Stevens
Год выпуска диска: неизв.
Год выпуска фильма: 1981

Аудио кодек: APE (*.ape)
Тип рипа: image+.cue
Битрейт аудио: lossless
Продолжительность: 50:12 + 59:31

Источник: emule
Наличие сканов в содержимом раздачи: да
Треклист:
01. Main Titles (5:11)
02. Escape From Jerusalem (1:49)
03. The Old City (2:44)
04. A Lonely Roman (0:46)
05. Night Manouvers (1:41)
06. Rebel Sword Practice (2:54)
07. Roman Legion Approaches Masada (2:25)
08. Our Land (4:35)
09. Poisoning The Wells / Silva's Return (3:04)
10. The Road To Masada (7:08)
11. Desert Sun / The Cliffs Of Masada (2:44)
12. Eleazar Attacks Hebron Garrison (2:01)
13. Silva Arrives In Rome (1:44)
14. No Water (2:43)
15. The Encampment (2:12)
16. The Slaves (4:34)
17. End Title (1:21)
 
EAC extraction logfile from 7. August 2006, 11:27 for CDJerry Goldsmith / Masada CD 1

Used drive : PLEXTOR DVDR PX-760A Adapter: 2 ID: 0Read mode : Secure with NO C2, accurate stream, disable cacheRead offset correction : 30Overread into Lead-In and Lead-Out : No

Used output format : Internal WAV Routines 44.100 Hz; 16 Bit; Stereo

Other options : Fill up missing offset samples with silence : Yes Delete leading and trailing silent blocks : No Installed external ASPI interface

Range status and errorsSelected range Filename E:\HQShare.Net Releases\Jerry Goldsmith & Morton Stevens - Masada (Expanded Score)\Listen CD 1\Jerry Goldsmith - Masada CD 1.wav

Peak level 98.0 % Range quality 100.0 % CRC 2BE279B2 Copy OK

No errors occured

End of status report
 
REM GENRE SoundtrackREM DISCID D10BC311REM COMMENT "ExactAudioCopy v0.95b3"PERFORMER "Jerry Goldsmith"TITLE "Masada CD 1"FILE "Jerry Goldsmith - Masada CD 1.ape" WAVE TRACK 01 AUDIO TITLE "Main Titles" PERFORMER "Jerry Goldsmith" FLAGS DCP INDEX 01 00:00:00 TRACK 02 AUDIO TITLE "Escape From Jerusalem" PERFORMER "Jerry Goldsmith" FLAGS DCP INDEX 00 05:10:50 INDEX 01 05:12:50 TRACK 03 AUDIO TITLE "The Old City" PERFORMER "Jerry Goldsmith" FLAGS DCP INDEX 00 07:01:50 INDEX 01 07:03:50 TRACK 04 AUDIO TITLE "A Lonely Roman" PERFORMER "Jerry Goldsmith" FLAGS DCP INDEX 00 09:48:50 INDEX 01 09:50:50 TRACK 05 AUDIO TITLE "Night Manouvers" PERFORMER "Jerry Goldsmith" FLAGS DCP INDEX 00 10:36:51 INDEX 01 10:38:51 TRACK 06 AUDIO TITLE "Rebel Sword Practice" PERFORMER "Jerry Goldsmith" FLAGS DCP INDEX 00 12:19:51 INDEX 01 12:21:51 TRACK 07 AUDIO TITLE "Roman Legion Approaches Masada" PERFORMER "Jerry Goldsmith" FLAGS DCP INDEX 00 15:16:51 INDEX 01 15:18:51 TRACK 08 AUDIO TITLE "Our Land" PERFORMER "Jerry Goldsmith" FLAGS DCP INDEX 00 17:43:52 INDEX 01 17:45:52 TRACK 09 AUDIO TITLE "Poisoning The Wells / Silva's Return" PERFORMER "Jerry Goldsmith" FLAGS DCP INDEX 00 22:20:52 INDEX 01 22:22:52 TRACK 10 AUDIO TITLE "The Road To Masada" PERFORMER "Jerry Goldsmith" FLAGS DCP INDEX 00 25:27:53 INDEX 01 25:29:53 TRACK 11 AUDIO TITLE "Desert Sun / The Cliffs Of Masada" PERFORMER "Jerry Goldsmith" FLAGS DCP INDEX 00 32:37:53 INDEX 01 32:39:53 TRACK 12 AUDIO TITLE "Eleazar Attacks Hebron Garrison" PERFORMER "Jerry Goldsmith" FLAGS DCP INDEX 00 35:23:53 INDEX 01 35:25:53 TRACK 13 AUDIO TITLE "Silva Arrives In Rome" PERFORMER "Jerry Goldsmith" FLAGS DCP INDEX 00 37:26:54 INDEX 01 37:28:54 TRACK 14 AUDIO TITLE "No Water" PERFORMER "Jerry Goldsmith" FLAGS DCP INDEX 00 39:13:54 INDEX 01 39:15:54 TRACK 15 AUDIO TITLE "The Encampment" PERFORMER "Jerry Goldsmith" FLAGS DCP INDEX 00 41:58:54 INDEX 01 42:00:54 TRACK 16 AUDIO TITLE "The Slaves" PERFORMER "Jerry Goldsmith" FLAGS DCP INDEX 00 44:12:55 INDEX 01 44:14:55 TRACK 17 AUDIO TITLE "End Title" PERFORMER "Jerry Goldsmith" FLAGS DCP INDEX 00 48:48:56 INDEX 01 48:50:56
 
Started at: понедельник, 11. 10. 2010. - 3:51.03

1 file found

1 -===- C:\!_TORRENT\Jerry Goldsmith & Morton Stevens - Masada (1981)\CD1\Jerry Goldsmith - Masada CD 1.ape Extracted successfully Conclusion: This track looks like CDDA with probability 100% Tempfile successfully deleted.

Finished at: понедельник, 11. 10. 2010. - 3:56.37 (operation time: 0:05.33)
Скриншоты спектра частот (png):
Треклист:
01. The Night before Battle (1:38)
02. Love for a Slave (0:48)
03. Failed Assassination (3:25)
04. "Sleep Well, Romans!" (2:00)
05. Falco, The Emperor's Eyes Ans Ears (1:29)
06. The Thirst That Kills (1:45)
07. The Ramp Grows (1:02)
08. Death of Gallus the Engineer (1:25)
09. Eleazar's Prayer Is Answered (3:02)
10. Dangerous Ascent (4:02)
11. Peace Terms Rejected (1:53)
12. Silva Frees Sheva (5:07)
13. The Holy Man Take Up Arms (1:38)
14. Contemplating Suicide (1:47)
15. Battering Ram Approach / Rebel Preparations (9:27)
16. Burning Wall / Another Prayer Answered (4:52)
17. The Last Night On Masada (4:33)
18. The Empty Tent (0:42)
19. Walking Among the Dead (6:28)
20. They are Remembered (1:40)
 
EAC extraction logfile from 7. August 2006, 11:38 for CDMorton Stevens / Masada CD 2

Used drive : PLEXTOR DVDR PX-760A Adapter: 2 ID: 0Read mode : Secure with NO C2, accurate stream, disable cacheRead offset correction : 30Overread into Lead-In and Lead-Out : No

Used output format : Internal WAV Routines 44.100 Hz; 16 Bit; Stereo

Other options : Fill up missing offset samples with silence : Yes Delete leading and trailing silent blocks : No Installed external ASPI interface

Range status and errorsSelected range Filename E:\HQShare.Net Releases\Jerry Goldsmith & Morton Stevens - Masada (Expanded Score)\Listen CD 2\Morton Stevens - Masada CD 2.wav

Peak level 98.0 % Range quality 100.0 % CRC 17C5A1DD Copy OK

No errors occured

End of status report
 
REM GENRE SoundtrackREM DISCID 1E0DF314REM COMMENT "ExactAudioCopy v0.95b3"PERFORMER "Morton Stevens"TITLE "Masada CD 2"FILE "Morton Stevens - Masada CD 2.ape" WAVE TRACK 01 AUDIO TITLE "The Night before Battle" PERFORMER "Morton Stevens" FLAGS DCP INDEX 01 00:00:00 TRACK 02 AUDIO TITLE "Love for a Slave" PERFORMER "Morton Stevens" FLAGS DCP INDEX 00 01:38:01 INDEX 01 01:40:01 TRACK 03 AUDIO TITLE "Failed Assassination" PERFORMER "Morton Stevens" FLAGS DCP INDEX 00 02:29:02 INDEX 01 02:31:02 TRACK 04 AUDIO TITLE "Sleep Well, Romans!" PERFORMER "Morton Stevens" FLAGS DCP INDEX 00 05:56:02 INDEX 01 05:58:02 TRACK 05 AUDIO TITLE "Falco, The Emperor's Eyes Ans Ears" PERFORMER "Morton Stevens" FLAGS DCP INDEX 00 07:59:02 INDEX 01 08:01:02 TRACK 06 AUDIO TITLE "The Thirst That Kills" PERFORMER "Morton Stevens" FLAGS DCP INDEX 00 09:31:03 INDEX 01 09:33:03 TRACK 07 AUDIO TITLE "The Ramp Grows" PERFORMER "Morton Stevens" FLAGS DCP INDEX 00 11:18:04 INDEX 01 11:20:04 TRACK 08 AUDIO TITLE "Death of Gallus the Engineer" PERFORMER "Morton Stevens" FLAGS DCP INDEX 00 12:23:04 INDEX 01 12:25:04 TRACK 09 AUDIO TITLE "Eleazar's Prayer Is Answered" PERFORMER "Morton Stevens" FLAGS DCP INDEX 00 13:50:04 INDEX 01 13:52:04 TRACK 10 AUDIO TITLE "Dangerous Ascent" PERFORMER "Morton Stevens" FLAGS DCP INDEX 00 16:54:05 INDEX 01 16:56:05 TRACK 11 AUDIO TITLE "Peace Terms Rejected" PERFORMER "Morton Stevens" FLAGS DCP INDEX 00 20:58:06 INDEX 01 21:00:06 TRACK 12 AUDIO TITLE "Silva Frees Sheva" PERFORMER "Morton Stevens" FLAGS DCP INDEX 00 22:53:07 INDEX 01 22:55:07 TRACK 13 AUDIO TITLE "The Holy Man Take Up Arms" PERFORMER "Morton Stevens" FLAGS DCP INDEX 00 28:02:08 INDEX 01 28:04:08 TRACK 14 AUDIO TITLE "Contemplating Suicide" PERFORMER "Morton Stevens" FLAGS DCP INDEX 00 29:43:09 INDEX 01 29:45:09 TRACK 15 AUDIO TITLE "Battering Ram Approach / Rebel Preparations" PERFORMER "Morton Stevens" FLAGS DCP INDEX 00 31:32:10 INDEX 01 31:34:10 TRACK 16 AUDIO TITLE "Burning Wall / Another Prayer Answered" PERFORMER "Morton Stevens" FLAGS DCP INDEX 00 41:02:11 INDEX 01 41:04:11 TRACK 17 AUDIO TITLE "The Last Night On Masada" PERFORMER "Morton Stevens" FLAGS DCP INDEX 00 45:57:11 INDEX 01 45:59:11 TRACK 18 AUDIO TITLE "The Empty Tent" PERFORMER "Morton Stevens" FLAGS DCP INDEX 00 50:32:11 INDEX 01 50:34:11 TRACK 19 AUDIO TITLE "Walking Among the Dead" PERFORMER "Morton Stevens" FLAGS DCP INDEX 00 51:17:12 INDEX 01 51:19:12 TRACK 20 AUDIO TITLE "They are Remembered" PERFORMER "Morton Stevens" FLAGS DCP INDEX 00 57:48:13 INDEX 01 57:50:13
 
Started at: понедельник, 11. 10. 2010. - 3:57.13

1 file found

1 -===- C:\!_TORRENT\Jerry Goldsmith & Morton Stevens - Masada (1981)\CD2\Morton Stevens - Masada CD 2.ape Extracted successfully Conclusion: This track looks like CDDA with probability 100% Tempfile successfully deleted.

Finished at: понедельник, 11. 10. 2010. - 4:03.44 (operation time: 0:06.31)
Скриншоты спектра частот (png):


Трекер:  [ 08-Июл-2011 18:38 ]

  

Скачать .torrent

Размер .torrent файла 12 KB


Размер: 572 MB
Хэш (hash) релиза: 865d7463d176bb66daad5fb705950f2a72cd9a05

Еще никто не оставлял запись к записи скачать торрент Масада Masada . Будь первым!

!Обратная связь