Скачать через торрент музыку Час Пик Rush Hour - Def Jams Rush Hour Soundtrack - 1998, FLAC бесплатно без регистрации torrent

Если у вас наблюдаются проблемы со скриншотами, переходом по ссылками, скачиванием торрентов - проблемы в блокировщике рекламы AdBlock. #хорошегоДня!


Статистика раздачи
Размер:  447 MB   |    Зарегистрирован:  6 лет 5 месяцев   |    .torrent скачан:  51 раз   |   
Раздают:  1  
   
Загрузка...
 
Автор Сообщение

Galfimbul

avatar Galfimbul


Час Пик / Rush Hour - Def Jam's Rush Hour Soundtrack

Жанр: Soundtrack / RnB / Swing / Gangsta / Pop / Rap
Год выпуска диска: 1998
Производитель диска / Label: Made in Germany / Rush Associated Labels Recordings
Аудио кодек: FLAC
Тип рипа: tracks+.cue
Битрейт аудио: lossless
Продолжительность: 01:14:00

Трэклист:
01. Never Touch A Black Man's Radio (Skit) / Chris Tucker [0:00:16.20]
02. How Deep Is Your Love / Dru Hill featuring Redman [0:04:11.00]
03. Faded Pictures / Case and Joe [0:03:52.53]
04. Can I Get A Fuck You / Jay-Z featurning Amil & JA [0:05:11.80]
05. Kicks Ass (Skit) / Jackie Chan [0:00:09.66]
06. And You Don't Stop / Wu-Tang Clan [0:03:41.96]
07. Bitch Betta Have My Money / Ja Rule [0:03:28.77]
08. Is This Weed...Cigaweed (Skit) / Chris Tucker [0:00:25.02]
09. Disco / Grenique [0:04:35.10]
10. Blow Shit Up...FBI Wants You (Skit) Chris Tucker W/Chief [0:00:32.89]
11. Impress The Kid / Slick Rick [0:04:11.73]
12. If I Die Tonight / Montell Jordan featuring Monifah & Flesh-N-Bone [0:04:51.80]
13. Glad That We Loved / Jon B. [0:04:44.33]
14. I'll Be On A Big FBI Case (Skit) / Chris Tucker [0:00:06.93]
15. Terror Squadians / Terror Squad [0:05:03.04]
16. Please Tell Me You Speak English... (Skit) / Chris Tucker [0:00:12.06]
17. Way Too Crazy / Tray Deee featuring Jayo Felony & Daz [0:04:25.96]
18. N.B.C. / Charli Baltimore featuring Cam'ron & Noreaga [0:04:02.90]
19. You'll Never Miss Me 'Til I'm Gone / Terry Dexter [0:04:32.06]
20. Nasty Girl / Kasino featuring Nite & Day [0:03:44.02]
21. No Love / Imajin [0:04:12.13]
22. I'm Michael Jackson, You Tito (Skit) / Chris Tucker and Jackie Chan [0:00:17.70]
23. Tell The Feds / Too $hort [0:05:19.60]
24. Rush Hour Main Title Theme / Lalo Schifrin [0:01:17.33]
25. Take This Badge And Shove It (Skit) / Chris Tucker [0:00:33.73]
 
Exact Audio Copy V0.99 prebeta 4 from 23. January 2008

Отчёт EAC об извлечении, выполненном 4. мая 2010, 22:20

Various Artists / Def Jam's Rush Hour Soundtrack

Дисковод: TSSTcorpCD/DVDW TS-L632D Adapter: 0 ID: 0

Режим чтения : ДостоверностьИспользование точного потока : ДаОтключение кэша аудио : ДаИспользование указателей C2 : Нет

Коррекция смещения при чтении : 6Способность читать области Lead-in и Lead-out : НетЗаполнение пропущенных сэмплов тишиной : ДаУдаление блоков с тишиной в начале и конце : НетПри вычислениях CRC использовались нулевые сэмплы : ДаИнтерфейс : Встроенный Win32-интерфейс для Win NT/2000Обработка зазоров : Добавлено к предыдущему треку

Выходной формат : Пользовательский кодировщикВыбранный битрейт : 768 kBit/sКачество : ВысокийДобавление ID3-тэга : НетУтилита сжатия : C:\Program Files\Exact Audio Copy\FLAC\FLAC.EXEДополнительные параметры : -8 -V -T "ARTIST=%a" -T "TITLE=%t" -T "ALBUM=%g" -T "DATE=%y" -T "TRACKNUMBER=%n" -T "GENRE=%m" -T "COMMENT=EAC FLAC -8" %s

TOC извлечённого CD

Трек | Старт | Длительность | Начальный сектор | Конечный сектор --------------------------------------------------------------------- 1 | 0:00.00 | 0:16.15 | 0 | 1214 2 | 0:16.15 | 4:11.00 | 1215 | 20039 3 | 4:27.15 | 3:52.40 | 20040 | 37479 4 | 8:19.55 | 5:11.60 | 37480 | 60864 5 | 13:31.40 | 0:09.50 | 60865 | 61589 6 | 13:41.15 | 3:41.72 | 61590 | 78236 7 | 17:23.12 | 3:28.58 | 78237 | 93894 8 | 20:51.70 | 0:25.02 | 93895 | 95771 9 | 21:16.72 | 4:35.08 | 95772 | 116404 10 | 25:52.05 | 0:32.67 | 116405 | 118871 11 | 26:24.72 | 4:11.55 | 118872 | 137751 12 | 30:36.52 | 4:51.60 | 137752 | 159636 13 | 35:28.37 | 4:44.25 | 159637 | 180961 14 | 40:12.62 | 0:06.70 | 180962 | 181481 15 | 40:19.57 | 5:03.03 | 181482 | 204209 16 | 45:22.60 | 0:12.05 | 204210 | 205114 17 | 45:34.65 | 4:25.72 | 205115 | 225061 18 | 50:00.62 | 4:02.68 | 225062 | 243279 19 | 54:03.55 | 4:32.05 | 243280 | 263684 20 | 58:35.60 | 3:44.02 | 263685 | 280486 21 | 62:19.62 | 4:12.10 | 280487 | 299396 22 | 66:31.72 | 0:17.53 | 299397 | 300724 23 | 66:49.50 | 5:19.45 | 300725 | 324694 24 | 72:09.20 | 1:17.25 | 324695 | 330494 25 | 73:26.45 | 0:33.55 | 330495 | 333024

Трек 1

Имя файла D:\Torrents\Music Torrents\Def Jam's Rush Hour Soundtrack (1998) (Lossless)\01. Never Touch A Black Man's Radio (Skit) - Chris Tucker.wav

Длина предзазора 0:00:02.00

Пиковый уровень 55.6 % Качество трека 100.0 % CRC теста 89C4FAD0 CRC копии 89C4FAD0 Точное извлечение (достоверность 7) [0F7294DD] Копирование... OK

Трек 2

Имя файла D:\Torrents\Music Torrents\Def Jam's Rush Hour Soundtrack (1998) (Lossless)\02. How Deep Is Your Love - Dru Hill featuring Redman.wav

Пиковый уровень 98.8 % Качество трека 100.0 % CRC теста 99F38218 CRC копии 99F38218 Точное извлечение (достоверность 8) [C40FFA88] Копирование... OK

Трек 3

Имя файла D:\Torrents\Music Torrents\Def Jam's Rush Hour Soundtrack (1998) (Lossless)\03. Faded Pictures - Case and Joe.wav

Пиковый уровень 88.1 % Качество трека 100.0 % CRC теста 87943DDE CRC копии 87943DDE Точное извлечение (достоверность 8) [DCFE9153] Копирование... OK

Трек 4

Имя файла D:\Torrents\Music Torrents\Def Jam's Rush Hour Soundtrack (1998) (Lossless)\04. Can I Get A Fuck You - Jay-Z featurning Amil & JA.wav

Пиковый уровень 98.8 % Качество трека 99.9 % CRC теста A185115A CRC копии A185115A Точное извлечение (достоверность 8) [A30E4999] Копирование... OK

Трек 5

Имя файла D:\Torrents\Music Torrents\Def Jam's Rush Hour Soundtrack (1998) (Lossless)\05. Kicks Ass (Skit) - Jackie Chan.wav

Пиковый уровень 98.8 % Качество трека 100.0 % CRC теста 5585CD7C CRC копии 5585CD7C Точное извлечение (достоверность 7) [A2C5C3CD] Копирование... OK

Трек 6

Имя файла D:\Torrents\Music Torrents\Def Jam's Rush Hour Soundtrack (1998) (Lossless)\06. And You Don't Stop - Wu-Tang Clan.wav

Пиковый уровень 74.1 % Качество трека 100.0 % CRC теста C4A1DD51 CRC копии C4A1DD51 Точное извлечение (достоверность 7) [F40A7694] Копирование... OK

Трек 7

Имя файла D:\Torrents\Music Torrents\Def Jam's Rush Hour Soundtrack (1998) (Lossless)\07. Bitch Betta Have My Money - Ja Rule.wav

Пиковый уровень 98.8 % Качество трека 100.0 % CRC теста 9F502A3E CRC копии 9F502A3E Точное извлечение (достоверность 7) [758498E2] Копирование... OK

Трек 8

Имя файла D:\Torrents\Music Torrents\Def Jam's Rush Hour Soundtrack (1998) (Lossless)\08. Is This Weed...Cigaweed (Skit) - Chris Tucker.wav

Пиковый уровень 98.8 % Качество трека 100.0 % CRC теста 50AB894D CRC копии 50AB894D Точное извлечение (достоверность 7) [B23CE4DA] Копирование... OK

Трек 9

Имя файла D:\Torrents\Music Torrents\Def Jam's Rush Hour Soundtrack (1998) (Lossless)\09. Disco - Grenique.wav

Пиковый уровень 98.8 % Качество трека 100.0 % CRC теста 24E88294 CRC копии 24E88294 Точное извлечение (достоверность 7) [A01AF692] Копирование... OK

Трек 10

Имя файла D:\Torrents\Music Torrents\Def Jam's Rush Hour Soundtrack (1998) (Lossless)\10. Blow Shit Up...FBI Wants You (Skit) Chris Tucker W - Chief.wav

Пиковый уровень 98.8 % Качество трека 99.6 % CRC теста 9240F516 CRC копии 9240F516 Точное извлечение (достоверность 7) [6B405D25] Копирование... OK

Трек 11

Имя файла D:\Torrents\Music Torrents\Def Jam's Rush Hour Soundtrack (1998) (Lossless)\11. Impress The Kid - Slick Rick.wav

Пиковый уровень 98.8 % Качество трека 100.0 % CRC теста 7D96CF3A CRC копии 7D96CF3A Точное извлечение (достоверность 7) [1C8DE53D] Копирование... OK

Трек 12

Имя файла D:\Torrents\Music Torrents\Def Jam's Rush Hour Soundtrack (1998) (Lossless)\12. If I Die Tonight - Montell Jordan featuring Monifah & Flesh-N-Bone.wav

Пиковый уровень 98.8 % Качество трека 100.0 % CRC теста 9DAC0761 CRC копии 9DAC0761 Точное извлечение (достоверность 7) [67045949] Копирование... OK

Трек 13

Имя файла D:\Torrents\Music Torrents\Def Jam's Rush Hour Soundtrack (1998) (Lossless)\13. Glad That We Loved - Jon B..wav

Длина предзазора 0:00:01.22

Пиковый уровень 98.8 % Качество трека 100.0 % CRC теста E8039E2F CRC копии E8039E2F Точное извлечение (достоверность 7) [872AF47E] Копирование... OK

Трек 14

Имя файла D:\Torrents\Music Torrents\Def Jam's Rush Hour Soundtrack (1998) (Lossless)\14. I'll Be On A Big FBI Case (Skit) - Chris Tucker.wav

Пиковый уровень 98.8 % Качество трека 100.0 % CRC теста B967EE7A CRC копии B967EE7A Точное извлечение (достоверность 7) [34A0B5EA] Копирование... OK

Трек 15

Имя файла D:\Torrents\Music Torrents\Def Jam's Rush Hour Soundtrack (1998) (Lossless)\15. Terror Squadians - Terror Squad.wav

Пиковый уровень 98.8 % Качество трека 100.0 % CRC теста 776926E0 CRC копии 776926E0 Точное извлечение (достоверность 7) [709EABCF] Копирование... OK

Трек 16

Имя файла D:\Torrents\Music Torrents\Def Jam's Rush Hour Soundtrack (1998) (Lossless)\16. Please Tell Me You Speak English... (Skit) - Chris Tucker.wav

Пиковый уровень 76.4 % Качество трека 100.0 % CRC теста F3A3F101 CRC копии F3A3F101 Точное извлечение (достоверность 7) [B8B2BA24] Копирование... OK

Трек 17

Имя файла D:\Torrents\Music Torrents\Def Jam's Rush Hour Soundtrack (1998) (Lossless)\17. Way Too Crazy - Tray Deee featuring Jayo Felony & Daz.wav

Пиковый уровень 98.8 % Качество трека 99.9 % CRC теста 012DCDEF CRC копии 012DCDEF Точное извлечение (достоверность 7) [811AE824] Копирование... OK

Трек 18

Имя файла D:\Torrents\Music Torrents\Def Jam's Rush Hour Soundtrack (1998) (Lossless)\18. N.B.C. - Charli Baltimore featuring Cam'ron & Noreaga.wav

Пиковый уровень 98.8 % Качество трека 100.0 % CRC теста BFA6E0AF CRC копии BFA6E0AF Точное извлечение (достоверность 7) [4172AE3F] Копирование... OK

Трек 19

Имя файла D:\Torrents\Music Torrents\Def Jam's Rush Hour Soundtrack (1998) (Lossless)\19. You'll Never Miss Me 'Til I'm Gone - Terry Dexter.wav

Пиковый уровень 83.1 % Качество трека 100.0 % CRC теста 0305C04D CRC копии 0305C04D Точное извлечение (достоверность 7) [19B79702] Копирование... OK

Трек 20

Имя файла D:\Torrents\Music Torrents\Def Jam's Rush Hour Soundtrack (1998) (Lossless)\20. Nasty Girl - Kasino featuring Nite & Day.wav

Длина предзазора 0:00:01.66

Пиковый уровень 98.8 % Качество трека 100.0 % CRC теста 377BA2EF CRC копии 377BA2EF Точное извлечение (достоверность 7) [9AAA08C2] Копирование... OK

Трек 21

Имя файла D:\Torrents\Music Torrents\Def Jam's Rush Hour Soundtrack (1998) (Lossless)\21. No Love - Imajin.wav

Длина предзазора 0:00:01.42

Пиковый уровень 98.8 % Качество трека 100.0 % CRC теста 6A2BE0C1 CRC копии 6A2BE0C1 Точное извлечение (достоверность 7) [4068DDAA] Копирование... OK

Трек 22

Имя файла D:\Torrents\Music Torrents\Def Jam's Rush Hour Soundtrack (1998) (Lossless)\22. I'm Michael Jackson, You Tito (Skit) - Chris Tucker and Jackie Chan.wav

Пиковый уровень 98.8 % Качество трека 100.0 % CRC теста 90EC21BB CRC копии 90EC21BB Точное извлечение (достоверность 7) [7D7D308F] Копирование... OK

Трек 23

Имя файла D:\Torrents\Music Torrents\Def Jam's Rush Hour Soundtrack (1998) (Lossless)\23. Tell The Feds - Too $hort.wav

Пиковый уровень 98.8 % Качество трека 100.0 % CRC теста DD51EF4C CRC копии DD51EF4C Точное извлечение (достоверность 7) [6B7279E2] Копирование... OK

Трек 24

Имя файла D:\Torrents\Music Torrents\Def Jam's Rush Hour Soundtrack (1998) (Lossless)\24. Rush Hour Main Title Theme - Lalo Schifrin.wav

Пиковый уровень 98.8 % Качество трека 99.8 % CRC теста A824596D CRC копии A824596D Точное извлечение (достоверность 7) [568CF508] Копирование... OK

Трек 25

Имя файла D:\Torrents\Music Torrents\Def Jam's Rush Hour Soundtrack (1998) (Lossless)\25. Take This Badge And Shove It (Skit) - Chris Tucker.wav

Пиковый уровень 45.0 % Качество трека 100.0 % CRC теста DE7B6082 CRC копии DE7B6082 Точное извлечение (достоверность 7) [F255F06C] Копирование... OK

Все треки извлечены точно

Ошибок не произошло

Конец отчёта
 
REM GENRE Hip-HopREM DATE 1998REM DISCID 40115819REM COMMENT "ExactAudioCopy v0.99pb4"PERFORMER "Various Artists"TITLE "Def Jam's Rush Hour Soundtrack"FILE "01. Never Touch A Black Man's Radio (Skit) - Chris Tucker.wav" WAVE TRACK 01 AUDIO TITLE "Chris Tucker" PERFORMER "Never Touch A Black Man's Radio (Skit)" INDEX 01 00:00:00FILE "02. How Deep Is Your Love - Dru Hill featuring Redman.wav" WAVE TRACK 02 AUDIO TITLE "Dru Hill featuring Redman" PERFORMER "How Deep Is Your Love" INDEX 01 00:00:00FILE "03. Faded Pictures - Case and Joe.wav" WAVE TRACK 03 AUDIO TITLE "Case and Joe" PERFORMER "Faded Pictures" INDEX 01 00:00:00FILE "04. Can I Get A Fuck You - Jay-Z featurning Amil & JA.wav" WAVE TRACK 04 AUDIO TITLE "Jay-Z featurning Amil & JA" PERFORMER "Can I Get A Fuck You" INDEX 01 00:00:00FILE "05. Kicks Ass (Skit) - Jackie Chan.wav" WAVE TRACK 05 AUDIO TITLE "Jackie Chan" PERFORMER "Kicks Ass (Skit)" INDEX 01 00:00:00FILE "06. And You Don't Stop - Wu-Tang Clan.wav" WAVE TRACK 06 AUDIO TITLE "Wu-Tang Clan" PERFORMER "And You Don't Stop" INDEX 01 00:00:00FILE "07. Bitch Betta Have My Money - Ja Rule.wav" WAVE TRACK 07 AUDIO TITLE "Ja Rule" PERFORMER "Bitch Betta Have My Money" INDEX 01 00:00:00FILE "08. Is This Weed...Cigaweed (Skit) - Chris Tucker.wav" WAVE TRACK 08 AUDIO TITLE "Chris Tucker" PERFORMER "Is This Weed...Cigaweed (Skit)" INDEX 01 00:00:00FILE "09. Disco - Grenique.wav" WAVE TRACK 09 AUDIO TITLE "Grenique" PERFORMER "Disco" INDEX 01 00:00:00FILE "10. Blow Shit Up...FBI Wants You (Skit) Chris Tucker W - Chief.wav" WAVE TRACK 10 AUDIO TITLE "Chief" PERFORMER "Blow Shit Up...FBI Wants You (Skit) Chris Tucker W" INDEX 01 00:00:00FILE "11. Impress The Kid - Slick Rick.wav" WAVE TRACK 11 AUDIO TITLE "Slick Rick" PERFORMER "Impress The Kid" INDEX 01 00:00:00FILE "12. If I Die Tonight - Montell Jordan featuring Monifah & Flesh-N-Bone.wav" WAVE TRACK 12 AUDIO TITLE "Montell Jordan featuring Monifah & Flesh-N-Bone" PERFORMER "If I Die Tonight" INDEX 01 00:00:00 TRACK 13 AUDIO TITLE "Jon B." PERFORMER "Glad That We Loved" INDEX 00 04:50:43FILE "13. Glad That We Loved - Jon B..wav" WAVE INDEX 01 00:00:00FILE "14. I'll Be On A Big FBI Case (Skit) - Chris Tucker.wav" WAVE TRACK 14 AUDIO TITLE "Chris Tucker" PERFORMER "I'll Be On A Big FBI Case (Skit)" INDEX 01 00:00:00FILE "15. Terror Squadians - Terror Squad.wav" WAVE TRACK 15 AUDIO TITLE "Terror Squad" PERFORMER "Terror Squadians" INDEX 01 00:00:00FILE "16. Please Tell Me You Speak English... (Skit) - Chris Tucker.wav" WAVE TRACK 16 AUDIO TITLE "Chris Tucker" PERFORMER "Please Tell Me You Speak English... (Skit)" INDEX 01 00:00:00FILE "17. Way Too Crazy - Tray Deee featuring Jayo Felony & Daz.wav" WAVE TRACK 17 AUDIO TITLE "Tray Deee featuring Jayo Felony & Daz" PERFORMER "Way Too Crazy" INDEX 01 00:00:00FILE "18. N.B.C. - Charli Baltimore featuring Cam'ron & Noreaga.wav" WAVE TRACK 18 AUDIO TITLE "Charli Baltimore featuring Cam'ron & Noreaga" PERFORMER "N.B.C." INDEX 01 00:00:00FILE "19. You'll Never Miss Me 'Til I'm Gone - Terry Dexter.wav" WAVE TRACK 19 AUDIO TITLE "Terry Dexter" PERFORMER "You'll Never Miss Me 'Til I'm Gone" INDEX 01 00:00:00 TRACK 20 AUDIO TITLE "Kasino featuring Nite & Day" PERFORMER "Nasty Girl" INDEX 00 04:30:30FILE "20. Nasty Girl - Kasino featuring Nite & Day.wav" WAVE INDEX 01 00:00:00 TRACK 21 AUDIO TITLE "Imajin" PERFORMER "No Love" INDEX 00 03:42:45FILE "21. No Love - Imajin.wav" WAVE INDEX 01 00:00:00FILE "22. I'm Michael Jackson, You Tito (Skit) - Chris Tucker and Jackie Chan.wav" WAVE TRACK 22 AUDIO TITLE "Chris Tucker and Jackie Chan" PERFORMER "I'm Michael Jackson, You Tito (Skit)" INDEX 01 00:00:00FILE "23. Tell The Feds - Too $hort.wav" WAVE TRACK 23 AUDIO TITLE "Too $hort" PERFORMER "Tell The Feds" INDEX 01 00:00:00FILE "24. Rush Hour Main Title Theme - Lalo Schifrin.wav" WAVE TRACK 24 AUDIO TITLE "Lalo Schifrin" PERFORMER "Rush Hour Main Title Theme" INDEX 01 00:00:00FILE "25. Take This Badge And Shove It (Skit) - Chris Tucker.wav" WAVE TRACK 25 AUDIO TITLE "Chris Tucker" PERFORMER "Take This Badge And Shove It (Skit)" INDEX 01 00:00:00


Трекер:  [ 08-Июл-2011 18:38 ]

  

Скачать .torrent

Размер .torrent файла 20 KB


Размер: 447 MB
Хэш (hash) релиза: ed8babe20ec7e77ac6fd62d84c799d8b31d06342

Еще никто не оставлял запись к записи скачать торрент Час Пик Rush Hour - Def Jams Rush Hour Soundtrack - 1998, FLAC . Будь первым!

!Обратная связь