Скачать через торрент музыку Hilmar Orn Hilmarson - Children Of Nature Дети природы - 1996, FLAC бесплатно без регистрации torrent

Если у вас наблюдаются проблемы со скриншотами, переходом по ссылками, скачиванием торрентов - проблемы в блокировщике рекламы AdBlock. #хорошегоДня!


Статистика раздачи
Размер:  206 MB   |    Зарегистрирован:  6 лет 2 месяца   |    .torrent скачан:  29 раз   |   
Раздают:  1  
   
Загрузка...
 
Автор Сообщение

Galfimbul

avatar Galfimbul


Hilmar Örn Hilmarsson - Children Of Nature

Жанр: Score, Abstract, Ambient
Год выпуска диска: 1996
Производитель диска: UK
Лейбл: Touch
Аудио кодек: FLAC
Тип рипа: image+.cue
Битрейт аудио: lossless
Продолжительность: 40:02
Трэклист:
1 Ars Moriendi (5:54)
Cello - Stefán Örn Arnason
2 Charon (2:29)
3 Sudurgata (3:26)
Violin - Joolie Wood
4 Farm (3:15)
Kangling, Damaru - Venerable 'Chi.Med Rig.'Dzin Lama, Rinpoche, The
Violin - Joolie Wood
5 Snatis's Death (1:24)
6 Journey (4:07)
7 Escape (1:28)
8 Coffin (2:04)
9 Ascension (4:08)
10 Titles (3:12)
Cello - Stefán Örn Arnason
11 Aerophilia (3:20)
Percussion - Siggi Baldursson
12 Pretty Angels (5:06)
Доп. информация:
"Children Of Nature
Score by Hilmar Örn Hilmarsson
A Film by Fridrik Thor Fridriksson
Exact Audio Copy V0.99 prebeta 4 from 23. January 2008

Отчёт EAC об извлечении, выполненном 26. июня 2008, 19:01

Hilmar Orn Hilmarson / Children Of Nature

Дисковод: _NEC DVD_RW ND-3520AW Adapter: 1 ID: 0

Режим чтения : Достоверность
Использование точного потока : Да
Отключение кэша аудио : Да
Использование указателей C2 : Нет

Коррекция смещения при чтении : 48
Способность читать области Lead-in и Lead-out : Нет
Заполнение пропущенных сэмплов тишиной : Да
Удаление блоков с тишиной в начале и конце : Нет
При вычислениях CRC использовались нулевые сэмплы : Да
Интерфейс : Установленный внешний ASPI-интерфейс

Выходной формат : Внутренние WAV-операции
Формат сэмплов : 44.100 Гц; 16 бит; стерео

TOC извлечённого CD

Трек | Старт | Длительность | Начальный сектор | Конечный сектор
---------------------------------------------------------------------
1 | 0:00.00 | 5:45.39 | 0 | 25913
2 | 5:45.39 | 2:30.27 | 25914 | 37190
3 | 8:15.66 | 3:27.71 | 37191 | 52786
4 | 11:43.62 | 3:17.01 | 52787 | 67562
5 | 15:00.63 | 1:25.24 | 67563 | 73961
6 | 16:26.12 | 4:08.61 | 73962 | 92622
7 | 20:34.73 | 1:29.69 | 92623 | 99366
8 | 22:04.67 | 2:06.25 | 99367 | 108841
9 | 24:11.17 | 4:09.60 | 108842 | 127576
10 | 28:21.02 | 3:12.42 | 127577 | 142018
11 | 31:33.44 | 3:22.32 | 142019 | 157200
12 | 34:56.01 | 5:06.12 | 157201 | 180162

Характеристики диапазона извлечения и сообщения об ошибках

Выбранный диапазон

Имя файла D:\закачки\Hilmar Orn Hilmarson - Children Of Nature.wav

Пиковый уровень 100.0 %
Качество диапазона 99.4 %
CRC копии 3C84EF10
Копирование... OK

Ошибок не произошло

AccurateRip: сводка

Трек 1 нет в базе данных
Трек 2 нет в базе данных
Трек 3 нет в базе данных
Трек 4 нет в базе данных
Трек 5 нет в базе данных
Трек 6 нет в базе данных
Трек 7 нет в базе данных
Трек 8 нет в базе данных
Трек 9 нет в базе данных
Трек 10 нет в базе данных
Трек 11 нет в базе данных
Трек 12 нет в базе данных

Ни одного трека нет в базе AccurateRip

Конец отчёта


Трекер:  [ 08-Июл-2011 18:39 ]

  

Скачать .torrent

Размер .torrent файла 17 KB


Размер: 206 MB
Хэш (hash) релиза: 5e6673d09c1c87411465037b6bf3743c65aced07

Еще никто не оставлял запись к записи скачать торрент Hilmar Orn Hilmarson - Children Of Nature Дети природы - 1996, FLAC . Будь первым!

!Обратная связь