Скачать через торрент музыку Shaun Of The Dead Зомби по имени Шон - 2004, FLAC бесплатно без регистрации torrent

Если у вас наблюдаются проблемы со скриншотами, переходом по ссылками, скачиванием торрентов - проблемы в блокировщике рекламы AdBlock. #хорошегоДня!


Статистика раздачи
Размер:  411 MB   |    Зарегистрирован:  6 лет 2 месяца   |    .torrent скачан:  32 раза   |   
Раздают:  1  
   
Загрузка...
 
Автор Сообщение

Galfimbul

avatar Galfimbul


Shaun Of The Dead / Зомби по имени Шон
Жанр: Soundtrack
Год выпуска диска: 2004
Производитель диска: UK
Аудио кодек: FLAC
Тип рипа: tracks+.cue
Битрейт аудио: lossless
Продолжительность: 01:07:13



Треклист:

01. Figment (0:38)
Performed by Goblin

02. The Blue Wraith (1:42)
Performed by I Monster

03. Mister Mental (2:59)
Performed by The Eighties Matchbox B-Line Disaster

04. Meltdown (3:18)
Performed by Ash

05. Don't Stop Me Now (3:24)
Performed by Queen

06. White Lines (Don't Do It) (4:36)
Performed by Grandmaster Flash & Melle Mel

07. Hip Hop, Be Bop (Don't Stop) (3:03)
Performed by Man Parrish

08. Zombie Creeping Fresh (0:42)
Performed by Dan Mudford and Pete Woodhead

09. Zombi vs. Kernkraft 400 (Goblin vs. Zombie Nation) (3:20)
Performed by Osymyso

10. Fizzy Legs (2:28)
Performed by Dan Mudford and Pete Woodhead

11. Soft (4:33)
Performed by Lemon Jelly

12. Death Bivouac (0:37)
Performed by Dan Mudford and Pete Woodhead

13. The Gonk (Kid Koala remix) (1:47)
Performed by The Noveltones

14. Envy the Dead (0:46)
Performed by Dan Mudford and Pete Woodhead

15. Ghost Town (5:31)
Performed by The Specials

16. Blood in Three Flavours (3:34)
Performed by Dan Mudford and Pete Woodhead

17. Panic (2:04)
Performed by The Smiths

18. Everybody's Happy Nowadays (feat. Chris Martin) (3:28)
Performed by Ash

19. You're My Best Friend (2:57)
Performed by Queen

20. You've Got Red on You: Shaun of the Dead Suite (10:36)
Performed by Dan Mudford and Pete Woodhead

21. Normality (3:33)
Performed by Dan Mudford and Pete Woodhead

22. Fun Dead (Osymyso remix) (1:37)
Performed by Cheggars vs. the Gonk



Источник: Waffles.fm
 
Exact Audio Copy V0.99 prebeta 5 from 4. May 2009

EAC extraction logfile from 3. July 2009, 13:44

Various Artists / Shaun of the Dead

Used drive : PIONEER DVD-RW DVR-115D Adapter: 0 ID: 0

Read mode : SecureUtilize accurate stream : YesDefeat audio cache : YesMake use of C2 pointers : No

Read offset correction : 48Overread into Lead-In and Lead-Out : NoFill up missing offset samples with silence : YesDelete leading and trailing silent blocks : NoNull samples used in CRC calculations : YesUsed interface : Native Win32 interface for Win NT & 2000Gap handling : Appended to previous track

Used output format : User Defined EncoderSelected bitrate : 320 kBit/sQuality : HighAdd ID3 tag : NoCommand line compressor : C:\Program Files (x86)\Exact Audio Copy\Flac\flac.exeAdditional command line options : -V -8 -T "artist=%a" -T "title=%t" -T "album=%g" -T "date=%y" -T "tracknumber=%n" -T "genre=%m" %s

TOC of the extracted CD

Track | Start | Length | Start sector | End sector --------------------------------------------------------- 1 | 0:00.00 | 0:38.03 | 0 | 2852 2 | 0:38.03 | 1:41.67 | 2853 | 10494 3 | 2:19.70 | 2:59.08 | 10495 | 23927 4 | 5:19.03 | 3:17.60 | 23928 | 38762 5 | 8:36.63 | 3:24.00 | 38763 | 54062 6 | 12:00.63 | 4:35.62 | 54063 | 74749 7 | 16:36.50 | 3:03.15 | 74750 | 88489 8 | 19:39.65 | 0:42.35 | 88490 | 91674 9 | 20:22.25 | 3:20.05 | 91675 | 106679 10 | 23:42.30 | 2:27.55 | 106680 | 117759 11 | 26:10.10 | 4:33.20 | 117760 | 138254 12 | 30:43.30 | 0:36.50 | 138255 | 141004 13 | 31:20.05 | 1:46.65 | 141005 | 149019 14 | 33:06.70 | 0:46.25 | 149020 | 152494 15 | 33:53.20 | 5:30.58 | 152495 | 177302 16 | 39:24.03 | 3:33.57 | 177303 | 193334 17 | 42:57.60 | 2:04.13 | 193335 | 202647 18 | 45:01.73 | 3:28.17 | 202648 | 218264 19 | 48:30.15 | 2:56.43 | 218265 | 231507 20 | 51:26.58 | 10:36.12 | 231508 | 279219 21 | 62:02.70 | 3:33.00 | 279220 | 295194 22 | 65:35.70 | 1:37.08 | 295195 | 302477

Track 1

Filename C:\EACrips\01 - Figment.wav

Pre-gap length 0:00:02.00

Peak level 99.9 % Track quality 100.0 % Test CRC 5E74A725 Copy CRC 5E74A725 Accurately ripped (confidence 8) [042EAAFE] Copy OK

Track 2

Filename C:\EACrips\02 - I Monster - The Blue Wrath.wav

Peak level 99.2 % Track quality 100.0 % Test CRC 229CF0E7 Copy CRC 229CF0E7 Accurately ripped (confidence 8) [447CC417] Copy OK

Track 3

Filename C:\EACrips\03 - The Eighties Matchbox B-Line Disaster - Mister Mental.wav

Peak level 98.9 % Track quality 100.0 % Test CRC 62560B2A Copy CRC 62560B2A Accurately ripped (confidence 8) [37539FFF] Copy OK

Track 4

Filename C:\EACrips\04 - Ash - Meltdown.wav

Peak level 98.9 % Track quality 100.0 % Test CRC DF3846BE Copy CRC DF3846BE Accurately ripped (confidence 8) [C301AB5A] Copy OK

Track 5

Filename C:\EACrips\05 - Queen - Don't Stop Me Now.wav

Peak level 99.1 % Track quality 100.0 % Test CRC 610FC546 Copy CRC 610FC546 Accurately ripped (confidence 8) [8F40BBF8] Copy OK

Track 6

Filename C:\EACrips\06 - Grand Master Flash & Melle Mel - White Lines (Don't Do It).wav

Peak level 99.6 % Track quality 100.0 % Test CRC A425D0AF Copy CRC A425D0AF Accurately ripped (confidence 8) [8FEEA966] Copy OK

Track 7

Filename C:\EACrips\07 - Man Parrish - Hip Hop, Be Bop (Don't Stop).wav

Peak level 99.1 % Track quality 100.0 % Test CRC 278624F2 Copy CRC 278624F2 Accurately ripped (confidence 8) [534E003B] Copy OK

Track 8

Filename C:\EACrips\08 - Zombie Creeping Flesh.wav

Peak level 99.5 % Track quality 99.7 % Test CRC 05E63B4E Copy CRC 05E63B4E Accurately ripped (confidence 8) [52A20AB7] Copy OK

Track 9

Filename C:\EACrips\09 - Zombie Nation - Kernkraft 400 (Osymyso Remix).wav

Peak level 99.9 % Track quality 100.0 % Test CRC A1D694E0 Copy CRC A1D694E0 Accurately ripped (confidence 8) [A4893932] Copy OK

Track 10

Filename C:\EACrips\10 - Fizzy Legs.wav

Peak level 98.7 % Track quality 99.9 % Test CRC E29ACDF8 Copy CRC E29ACDF8 Accurately ripped (confidence 8) [B3891FF8] Copy OK

Track 11

Filename C:\EACrips\11 - Lemon Jelly - Soft.wav

Peak level 98.8 % Track quality 99.9 % Test CRC CB965493 Copy CRC CB965493 Accurately ripped (confidence 8) [7EBC4CE4] Copy OK

Track 12

Filename C:\EACrips\12 - Death Bivouac.wav

Peak level 98.0 % Track quality 100.0 % Test CRC F0A1C7F9 Copy CRC F0A1C7F9 Accurately ripped (confidence 8) [AB80F11D] Copy OK

Track 13

Filename C:\EACrips\13 - The Noveltones - The Gonk (Remix).wav

Peak level 98.8 % Track quality 100.0 % Test CRC 6243A2F7 Copy CRC 6243A2F7 Accurately ripped (confidence 8) [5B1289EB] Copy OK

Track 14

Filename C:\EACrips\14 - Envy The Dead.wav

Peak level 98.8 % Track quality 100.0 % Test CRC 1156141D Copy CRC 1156141D Accurately ripped (confidence 8) [26261542] Copy OK

Track 15

Filename C:\EACrips\15 - The Specials - Ghost Town.wav

Peak level 99.9 % Track quality 100.0 % Test CRC B11253F1 Copy CRC B11253F1 Accurately ripped (confidence 8) [92BC8012] Copy OK

Track 16

Filename C:\EACrips\16 - Blood In Three Flavours.wav

Peak level 99.5 % Track quality 100.0 % Test CRC 50DC1BF9 Copy CRC 50DC1BF9 Accurately ripped (confidence 8) [8B39995B] Copy OK

Track 17

Filename C:\EACrips\17 - The Smiths - Panic.wav

Peak level 98.5 % Track quality 99.9 % Test CRC 6D739BEF Copy CRC 6D739BEF Accurately ripped (confidence 8) [BD224DB1] Copy OK

Track 18

Filename C:\EACrips\18 - Ash feat. Chris Martin - Everybody's Happy Nowadays.wav

Peak level 98.9 % Track quality 99.9 % Test CRC 6B3D67F1 Copy CRC 6B3D67F1 Accurately ripped (confidence 8) [2EC8A486] Copy OK

Track 19

Filename C:\EACrips\19 - Queen - You're My Best Friend.wav

Peak level 98.4 % Track quality 100.0 % Test CRC 36E59ECA Copy CRC 36E59ECA Accurately ripped (confidence 8) [3EFAA6EA] Copy OK

Track 20

Filename C:\EACrips\20 - You've Got Red On You- Shaun of the Dead Suite.wav

Peak level 98.9 % Track quality 100.0 % Test CRC 1B62C0D8 Copy CRC 1B62C0D8 Accurately ripped (confidence 8) [A74B4749] Copy OK

Track 21

Filename C:\EACrips\21 - Normality.wav

Peak level 98.5 % Track quality 100.0 % Test CRC EDA3DF3D Copy CRC EDA3DF3D Accurately ripped (confidence 8) [262E18F8] Copy OK

Track 22

Filename C:\EACrips\22 - Fundead - Osymyso Remix.wav

Pre-gap length 0:01:02.57

Peak level 99.1 % Track quality 100.0 % Test CRC 0109ADAF Copy CRC 0109ADAF Accurately ripped (confidence 8) [F74D6BEC] Copy OK

All tracks accurately ripped

No errors occurred

End of status report
 
[Verification date: 25.08.2009 15:59:50][Disc ID: 002f2708-0307202e-380fc116]Track [ CRC ] Status 01 [042eaafe] (08/08) Accurately ripped as in pressing(s) #1 02 [447cc417] (08/08) Accurately ripped as in pressing(s) #1 03 [37539fff] (08/08) Accurately ripped as in pressing(s) #1 04 [c301ab5a] (08/08) Accurately ripped as in pressing(s) #1 05 [8f40bbf8] (08/08) Accurately ripped as in pressing(s) #1 06 [8feea966] (08/08) Accurately ripped as in pressing(s) #1 07 [534e003b] (08/08) Accurately ripped as in pressing(s) #1 08 [52a20ab7] (08/08) Accurately ripped as in pressing(s) #1 09 [a4893932] (08/08) Accurately ripped as in pressing(s) #1 10 [b3891ff8] (08/08) Accurately ripped as in pressing(s) #1 11 [7ebc4ce4] (08/08) Accurately ripped as in pressing(s) #1 12 [ab80f11d] (08/08) Accurately ripped as in pressing(s) #1 13 [5b1289eb] (08/08) Accurately ripped as in pressing(s) #1 14 [26261542] (08/08) Accurately ripped as in pressing(s) #1 15 [92bc8012] (08/08) Accurately ripped as in pressing(s) #1 16 [8b39995b] (08/08) Accurately ripped as in pressing(s) #1 17 [bd224db1] (08/08) Accurately ripped as in pressing(s) #1 18 [2ec8a486] (08/08) Accurately ripped as in pressing(s) #1 19 [3efaa6ea] (08/08) Accurately ripped as in pressing(s) #1 20 [a74b4749] (08/08) Accurately ripped as in pressing(s) #1 21 [262e18f8] (08/08) Accurately ripped as in pressing(s) #1 22 [f74d6bec] (08/08) Accurately ripped as in pressing(s) #1

Track [ CRC32 ] [W/O NULL] [ LOG ] -- [3317677A] [B01EC2D9] 01 [5E74A725] [631B67A7] CRC32 02 [229CF0E7] [4D542571] CRC32 03 [62560B2A] [43BEB80A] CRC32 04 [DF3846BE] [5D99AE87] CRC32 05 [610FC546] [78FAE909] CRC32 06 [A425D0AF] [DE048D30] CRC32 07 [278624F2] [7D068B39] CRC32 08 [05E63B4E] [148620ED] CRC32 09 [A1D694E0] [A7E795AD] CRC32 10 [E29ACDF8] [9F08B390] CRC32 11 [CB965493] [2FB84D48] CRC32 12 [F0A1C7F9] [B3A409EB] CRC32 13 [6243A2F7] [12AE98F5] CRC32 14 [1156141D] [A2EF01D6] CRC32 15 [B11253F1] [0E6BF36E] CRC32 16 [50DC1BF9] [7379EAE9] CRC32 17 [6D739BEF] [A2245906] CRC32 18 [6B3D67F1] [9967F201] CRC32 19 [36E59ECA] [B0D0CAB8] CRC32 20 [1B62C0D8] [797F17D0] CRC32 21 [EDA3DF3D] [05A2F09D] CRC32 22 [0109ADAF] [B784C852] CRC32
 
AUDIOCHECKER v2.0 beta (build 457) - by Dester - opdester@freemail.hu~~~~~~~~~~~~~~~~~~~~~~~~~~~~~~~~~~-=== DO NOT EDIT THIS FILE! ===-

Path: ...\Shaun of the Dead - 2004 - OST [FLAC (tracks+.cue)]

01 -=- 01 - Figment.flac -=- CDDA (100%)02 -=- 02 - I Monster - The Blue Wrath.flac -=- MPEG (95%)03 -=- 03 - The Eighties Matchbox B-Line Disaster - Mister Mental.flac -=- MPEG (95%)04 -=- 04 - Ash - Meltdown.flac -=- CDDA (100%)05 -=- 05 - Queen - Don't Stop Me Now.flac -=- CDDA (100%)06 -=- 06 - Grand Master Flash & Melle Mel - White Lines (Don't Do It).flac -=- CDDA (100%)07 -=- 07 - Man Parrish - Hip Hop, Be Bop (Don't Stop).flac -=- CDDA (100%)08 -=- 08 - Zombie Creeping Flesh.flac -=- CDDA (100%)09 -=- 09 - Zombie Nation - Kernkraft 400 (Osymyso Remix).flac -=- CDDA (100%)10 -=- 10 - Fizzy Legs.flac -=- CDDA (87%)11 -=- 11 - Lemon Jelly - Soft.flac -=- MPEG (95%)12 -=- 12 - Death Bivouac.flac -=- CDDA (58%)13 -=- 13 - The Noveltones - The Gonk (Remix).flac -=- MPEG (100%)14 -=- 14 - Envy The Dead.flac -=- CDDA (99%)15 -=- 15 - The Specials - Ghost Town.flac -=- MPEG (95%)16 -=- 16 - Blood In Three Flavours.flac -=- CDDA (58%)17 -=- 17 - The Smiths - Panic.flac -=- MPEG (95%)18 -=- 18 - Ash feat. Chris Martin - Everybody's Happy Nowadays.flac -=- CDDA (100%)19 -=- 19 - Queen - You're My Best Friend.flac -=- CDDA (100%)20 -=- 20 - You've Got Red On You- Shaun of the Dead Suite.flac -=- CDDA (100%)21 -=- 21 - Normality.flac -=- CDDA (100%)22 -=- 22 - Fundead - Osymyso Remix.flac -=- CDDA (100%)

Summary 69,41% CDDA

5762852

Enjoy!


Трекер:  [ 08-Июл-2011 18:40 ]

  

Скачать .torrent

Размер .torrent файла 18 KB


Размер: 411 MB
Хэш (hash) релиза: 9fe2f4120f32d1a97628f7b41a4cd5b64878b640

Еще никто не оставлял запись к записи скачать торрент Shaun Of The Dead Зомби по имени Шон - 2004, FLAC . Будь первым!

!Обратная связь