Скачать через торрент музыку Troy Троя бесплатно без регистрации torrent

Если у вас наблюдаются проблемы со скриншотами, переходом по ссылками, скачиванием торрентов - проблемы в блокировщике рекламы AdBlock. #хорошегоДня!


Статистика раздачи
Размер:  357 MB   |    Зарегистрирован:  6 лет 2 месяца   |    .torrent скачан:  41 раз   |   
Раздают:  1  
   
Загрузка...
 
Автор Сообщение

Galfimbul

avatar Galfimbul


Gabriel Yared - Troy





Жанр: Score
Стиль: Epic Masterpiece
Год выпуска диска: 2004
Производитель диска: EU
Аудио кодек: WAVPack
Тип рипа: image+.cue
Битрейт аудио: lossless
Продолжительность: 79:58
01. Approach of the Greeks (2:27)
02. Achilles' Destiny (5:37)
03. The Opening (3:54)
04. Achilles and Boagrius (3:44)
05. Sparta (1:55)
06. Helen and Paris (1:41)
07. D-Day Battle (4:51)
08. Thousand Ships (3:31)
09. Mourning Women (1:23)
10. Achilles and Briseis (5:26)
11. Battle of the Arrows (7:08)
12. Greek Funeral Pyres (2:13)
13. Hector, Hector! (3:34)
14. Achilles and Hector Fight (4:35)
15. Hector's Funeral (2:21)
16. The Sacking of Troy (7:44)
17. Achilles' Death and Finale (8:41)
18. Closing Credits Chant (4:36)
19. Troy Theme (James Horner) (4:37)
Доп. информация:
 
Exact Audio Copy V0.99 prebeta 1 from 25. May 2007

EAC extraction logfile from 15. August 2007, 16:56

Gabriel Yared / Troy, the recjected score

Used drive : PLEXTOR DVDR PX-760A Adapter: 1 ID: 0

Read mode : SecureUtilize accurate stream : YesDefeat audio cache : YesMake use of C2 pointers : No

Read offset correction : 30Overread into Lead-In and Lead-Out : YesFill up missing offset samples with silence : YesDelete leading and trailing silent blocks : NoUsed interface : Installed external ASPI interface

Used output format : Internal WAV RoutinesSample format : 44.100 Hz; 16 Bit; Stereo

TOC of the extracted CD

Track | Start | Length | Start sector | End sector --------------------------------------------------------- 1 | 0:00.00 | 2:27.62 | 0 | 11086 2 | 2:27.62 | 5:37.55 | 11087 | 36416 3 | 8:05.42 | 3:54.34 | 36417 | 54000 4 | 12:00.01 | 3:44.47 | 54001 | 70847 5 | 15:44.48 | 1:55.47 | 70848 | 79519 6 | 17:40.20 | 1:41.24 | 79520 | 87118 7 | 19:21.44 | 4:51.16 | 87119 | 108959 8 | 24:12.60 | 3:31.19 | 108960 | 124803 9 | 27:44.04 | 1:23.68 | 124804 | 131096 10 | 29:07.72 | 5:26.33 | 131097 | 155579 11 | 34:34.30 | 7:08.26 | 155580 | 187705 12 | 41:42.56 | 2:13.63 | 187706 | 197743 13 | 43:56.44 | 3:34.38 | 197744 | 213831 14 | 47:31.07 | 4:35.34 | 213832 | 234490 15 | 52:06.41 | 2:21.72 | 234491 | 245137 16 | 54:28.38 | 7:44.03 | 245138 | 279940 17 | 62:12.41 | 8:41.30 | 279941 | 319045 18 | 70:53.71 | 4:36.12 | 319046 | 339757 19 | 75:30.08 | 4:37.58 | 339758 | 360590

Range status and errors

Selected range

Filename E:\EAC\Gabriel Yared - Troy, the recjected score.wav

Peak level 100.0 % Range quality 100.0 % Copy CRC DE20757B Copy OK

No errors occurred

End of status report


Трекер:  [ 08-Июл-2011 18:40 ]

  

Скачать .torrent

Размер .torrent файла 15 KB


Размер: 357 MB
Хэш (hash) релиза: 35b287bc8a6e2fa6c90cf0655e75d42ddbd49c49

Торренты, похожие на Troy Троя скачать торрент

Форум Название Автор Размер S L Добавлен
Саундтреки к фильмам и мультфильмам (lossless) ·· (Score) James Horner - Troy / Троя - 2004, FLAC (tracks+.cue), lossless Galfimbul 350220729334 MB 0 0 1292270407

23:00

13-Дек-10

Саундтреки к фильмам и мультфильмам (mp3) ·· (Score) Troy | Троя (The Complete Recording Sessions) (2 CD) (James Horner) - 2004, MP3, 320 kbps Mos 323003651308 MB 0 0 1292268163

22:22

13-Дек-10

Саундтреки к фильмам и мультфильмам (mp3) ·· (Score) Troy / Троя (James Horner) - 2004, MP3, 320 kbps Galfimbul 194157116185 MB 0 0 1292266103

21:48

13-Дек-10

Еще никто не оставлял запись к записи скачать торрент Troy Троя . Будь первым!

!Обратная связь