Скачать через торрент музыку Peter Kater - 10 Questions for the Dalai Lama - 2006, FLAC бесплатно без регистрации torrent

Если у вас наблюдаются проблемы со скриншотами, переходом по ссылками, скачиванием торрентов - проблемы в блокировщике рекламы AdBlock. #хорошегоДня!


Статистика раздачи
Размер:  246 MB   |    Зарегистрирован:  6 лет 2 месяца   |    .torrent скачан:  40 раз   |   
Раздают:  1  
   
Загрузка...
 
Автор Сообщение

Galfimbul

avatar Galfimbul


Peter Kater - 10 Questions for the Dalai Lama

Жанр: Score
Год выпуска диска: 2006
Производитель диска: Silver Wave,USA
Аудио кодек: FLAC
Тип рипа: image+.cue
Битрейт аудио: lossless
Продолжительность: 61:35
Трэклист:
01. 10 Questions for the Dalai Lama (3:11)
02. Fire Walk (4:23)
03. Surrender (4:49)
04. A Fresh Wind (10:09)
05. Buddha Search (3:40)
06. Lighting the Flame (5:16)
07. Seeking the Dalai Lama (3:31)
08. Ocean of Long Life (5:02)
09. Last Request (3:36)
10. Call of Compassion (12:53)
11. 10 Questions for the Dalai Lama (5:06)
Не слишком весёлый,но красивый саундтрек к документальному фильму о 14-м Далай-ламе и борьбе тибетского народа против китайской оккупации.В числе приглашённых,очень достойные музыканты: David Darling,R.Carlos Nakai,Nawang Khechog.

Рип мой.За сканы спасибо: LAnces.
 
Exact Audio Copy V0.99 prebeta 4 from 23. January 2008

EAC extraction logfile from 19. June 2009, 13:09

Peter Kater / 10 Questions for the Dalai Lama

Used drive : PIONEER DVD-RW DVR-215D Adapter: 2 ID: 1

Read mode : SecureUtilize accurate stream : YesDefeat audio cache : YesMake use of C2 pointers : No

Read offset correction : 48Overread into Lead-In and Lead-Out : NoFill up missing offset samples with silence : YesDelete leading and trailing silent blocks : NoNull samples used in CRC calculations : YesUsed interface : Installed external ASPI interface

Used output format : Internal WAV RoutinesSample format : 44.100 Hz; 16 Bit; Stereo

TOC of the extracted CD

Track | Start | Length | Start sector | End sector --------------------------------------------------------- 1 | 0:00.00 | 3:10.39 | 0 | 14288 2 | 3:10.39 | 4:23.03 | 14289 | 34016 3 | 7:33.42 | 4:48.48 | 34017 | 55664 4 | 12:22.15 | 10:08.71 | 55665 | 101335 5 | 22:31.11 | 3:39.63 | 101336 | 117823 6 | 26:10.74 | 5:16.00 | 117824 | 141523 7 | 31:26.74 | 3:30.42 | 141524 | 157315 8 | 34:57.41 | 5:02.30 | 157316 | 179995 9 | 39:59.71 | 3:35.39 | 179996 | 196159 10 | 43:35.35 | 12:53.21 | 196160 | 254155 11 | 56:28.56 | 5:06.10 | 254156 | 277115

Range status and errors

Selected range

Filename D:\torrent\Peter Kater - 10 Questions for the Dalai Lama\Peter Kater - 10 Questions for the Dalai Lama.wav

Peak level 100.0 % Range quality 99.9 % Test CRC 1EB4B394 Copy CRC 1EB4B394 Copy OK

No errors occurred

AccurateRip summary

Track 1 cannot be verified as accurate (confidence 1) [FC003DD1], AccurateRip returned [F35932D3]Track 2 cannot be verified as accurate (confidence 1) [DCDAA607], AccurateRip returned [C13975D9]Track 3 cannot be verified as accurate (confidence 1) [E9EE416E], AccurateRip returned [95FEBA10]Track 4 cannot be verified as accurate (confidence 1) [67DC93D4], AccurateRip returned [CF11F5BA]Track 5 cannot be verified as accurate (confidence 1) [22A3E4C5], AccurateRip returned [D0F18701]Track 6 cannot be verified as accurate (confidence 1) [91DA90CE], AccurateRip returned [5AE1BA46]Track 7 cannot be verified as accurate (confidence 1) [C3BE6B6B], AccurateRip returned [CC0FFFCA]Track 8 cannot be verified as accurate (confidence 1) [FDB9501B], AccurateRip returned [AEF87D74]Track 9 cannot be verified as accurate (confidence 1) [F33A1B4E], AccurateRip returned [ED0850C5]Track 10 cannot be verified as accurate (confidence 1) [78EFA69C], AccurateRip returned [4DBCED0B]Track 11 cannot be verified as accurate (confidence 1) [F460F3E4], AccurateRip returned [AA7C2A92]

No tracks could be verified as accurateYou may have a different pressing from the one(s) in the database

End of status report


Трекер:  [ 08-Июл-2011 18:41 ]

  

Скачать .torrent

Размер .torrent файла 20 KB


Размер: 246 MB
Хэш (hash) релиза: 9ae607508253538b7906d7530b07abc853787bd2

Еще никто не оставлял запись к записи скачать торрент Peter Kater - 10 Questions for the Dalai Lama - 2006, FLAC . Будь первым!

!Обратная связь