Скачать через торрент музыку Местный герой Local Hero бесплатно без регистрации torrent

Если у вас наблюдаются проблемы со скриншотами, переходом по ссылками, скачиванием торрентов - проблемы в блокировщике рекламы AdBlock. #хорошегоДня!


Статистика раздачи
Размер:  217 MB   |    Зарегистрирован:  6 лет 5 месяцев   |    .torrent скачан:  43 раза   |   
Раздают:  1  
   
Загрузка...
 
Автор Сообщение

Galfimbul

avatar Galfimbul


Местный герой / Local Hero (Remastered, HDCD)

Жанр: Score
Композитор: Mark Knopfler
Год выпуска диска: 1997
Год выпуска фильма: 1983
Страна-производитель диска: France (IFPI L004 / IFPI 0243 - Universal M&L)
Издатель (лейбл): Vertigo
Номер по каталогу: 811 038-2
EAN/UPC: 042281103827

Аудио кодек: FLAC (*.flac)
Тип рипа: image+.cue
Битрейт аудио: lossless
Продолжительность: 43:50

Источник: собственный рип
Наличие сканов в содержимом раздачи: да (300dpi)

01. The Rocks and the Water [0:03:31.42]
02. Wild Theme [0:03:38.86]
03. Freeway Flyer [0:01:49.17]
04. Boomtown (Variation Louis' Favourite) [0:04:11.86]
05. The Way It Always Starts [0:04:06.00]
06. The Rocks and the Thunder (1) [0:00:43.66]
07. The Ceilidh and the Northern Lights [0:03:52.40]
08. The Mist Covered Mountains [0:05:04.60]
09. The Ceilidh: Louis' Favourite/Billy's Tune [0:03:40.53]
10. Whistle Theme [0:00:52.82]
11. Smooching [0:05:03.64]
12. Stargazer [0:01:34.82]
13. The Rocks and the Thunder (2) [0:00:41.50]
14. Going Home: Theme of the Local Hero [0:04:58.66]
HDCD-ремастер 1997 г. саундтрека, оригинал которого вышел в 1983 г.
Первоиздание на трекере: (Soundtrack) Местный герой / Local Hero by Mark Knopfler - 1983, APE (image + .cue), lossless

О фильме: Кинопоиск, IMDB, Wikipedia
О саундтреке: soundtrackcollector.com

Альбом в MP3: (Score) Местный герой / Local Hero (Remastered HDCD) (by Mark Knopfler) - 1997, MP3 (tracks), 320 kbps

 
Exact Audio Copy V0.99 prebeta 5 from 4. May 2009

EAC extraction logfile from 3. December 2010, 15:28

Mark Knopfler / Local Hero (Remastered, HDCD)

Used drive : TSSTcorpCD/DVDW SH-S182M Adapter: 0 ID: 0

Read mode : SecureUtilize accurate stream : YesDefeat audio cache : YesMake use of C2 pointers : No

Read offset correction : 6Overread into Lead-In and Lead-Out : NoFill up missing offset samples with silence : YesDelete leading and trailing silent blocks : NoNull samples used in CRC calculations : YesUsed interface : Installed external ASPI interface

Used output format : User Defined EncoderSelected bitrate : 768 kBit/sQuality : HighAdd ID3 tag : NoCommand line compressor : C:\Program Files\Exact Audio Copy\FLAC\FLAC.EXEAdditional command line options : -8 -V %s

TOC of the extracted CD

Track | Start | Length | Start sector | End sector --------------------------------------------------------- 1 | 0:00.00 | 3:31.32 | 0 | 15856 2 | 3:31.32 | 3:38.65 | 15857 | 32271 3 | 7:10.22 | 1:49.13 | 32272 | 40459 4 | 8:59.35 | 4:11.65 | 40460 | 59349 5 | 13:11.25 | 4:06.00 | 59350 | 77799 6 | 17:17.25 | 0:43.50 | 77800 | 81074 7 | 18:01.00 | 3:52.30 | 81075 | 98504 8 | 21:53.30 | 5:04.45 | 98505 | 121349 9 | 26:58.00 | 3:40.40 | 121350 | 137889 10 | 30:38.40 | 0:52.62 | 137890 | 141851 11 | 31:31.27 | 5:03.48 | 141852 | 164624 12 | 36:35.00 | 1:34.62 | 164625 | 171736 13 | 38:09.62 | 0:41.38 | 171737 | 174849 14 | 38:51.25 | 4:58.50 | 174850 | 197249

Range status and errors

Selected range

Filename C:\Music\Mark Knopfler - Local Hero (Remastered, HDCD).wav

Peak level 96.6 % Range quality 100.0 % Test CRC B175E5DC Copy CRC B175E5DC Copy OK

No errors occurred

AccurateRip summary

Track 1 accurately ripped (confidence 6) [37FA7373]Track 2 accurately ripped (confidence 6) [078326BC]Track 3 accurately ripped (confidence 6) [C87B722F]Track 4 accurately ripped (confidence 5) [159B0CE2]Track 5 accurately ripped (confidence 6) [F2714E70]Track 6 accurately ripped (confidence 6) [1B590D19]Track 7 accurately ripped (confidence 6) [DDCBE87D]Track 8 accurately ripped (confidence 6) [E519547D]Track 9 accurately ripped (confidence 6) [816CE622]Track 10 accurately ripped (confidence 6) [9C84075D]Track 11 accurately ripped (confidence 6) [09D40AB1]Track 12 accurately ripped (confidence 6) [E924DE47]Track 13 accurately ripped (confidence 6) [C630A3FB]Track 14 accurately ripped (confidence 6) [07C09FCD]

All tracks accurately ripped

End of status report


Трекер:  [ 08-Июл-2011 18:42 ]

  

Скачать .torrent

Размер .torrent файла 18 KB


Размер: 217 MB
Хэш (hash) релиза: 0e5f28f505b2925c07a25563fb1e583eb6ede4b0

Торренты, похожие на Местный герой Local Hero скачать торрент

Форум Название Автор Размер S L Добавлен
Саундтреки к фильмам и мультфильмам (mp3) ·· (Score) Местный герой / Local Hero (Mark Knopfler) - 2012 (1983), MP3 (tracks) 320 kbps Galfimbul 188541345180 MB 0 0 1417602861

13:34

3-Дек-14

Саундтреки к фильмам и мультфильмам (lossless) ·· (Soundtrack) Местный герой / Local Hero (Mark Knopfler)- 1983 (Vertigo 811 038-2, West Germany), FLAC (image+.cue), lossless Galfimbul 288833103275 MB 0 0 1417538116

19:35

2-Дек-14

Еще никто не оставлял запись к записи скачать торрент Местный герой Local Hero . Будь первым!

!Обратная связь