Скачать через торрент музыку Дикие сердцем Wild at Heart бесплатно без регистрации torrent

Если у вас наблюдаются проблемы со скриншотами, переходом по ссылками, скачиванием торрентов - проблемы в блокировщике рекламы AdBlock. #хорошегоДня!


Статистика раздачи
Размер:  268 MB   |    Зарегистрирован:  6 лет 2 месяца   |    .torrent скачан:  41 раз   |   
Раздают:  1  
   
Загрузка...
 
Автор Сообщение

Galfimbul

avatar Galfimbul


Дикие сердцем / Wild at Heart

Жанр: Score / Soundtrack
Композитор: Angelo Badalamenti
Год выпуска диска: 1990
Производитель диска: Polydor Records
Аудио кодек: FLAC
Тип рипа: tracks+.cue
Битрейт аудио: lossless
Продолжительность: 00:51:01

01 - Gewandhausorchester Leipzig - Richard Strauss: Im Abendrot (01:48)
02 - Powermad - Slaughterhouse (05:22)
03 - Angelo Badalamenti and Kinny Landrum - Cool Cat Walk (03:26)
04 - Nicolas Cage - Love Me (02:57)
05 - Them - Baby Please Don't Go (02:41)
06 - Koko Taylor - Up In Flames (06:15)
07 - Chris Isaak - Wicked Game (04:05)
08 - Gene Vincent & The Blue Caps - Be-Bop-A-Lula (02:38)
09 - Glen Gray and The Casa Loma Orchestra - Smoke Rings (03:03)
10 - Rubber City - Perdita (04:13)
11 - Chris Isaak - Blue Spanish Sky (03:59)
12 - Angelo Badalamenti and Kinny Landrum - Dark Spanish Symphony (Edited - String Version) (02:36)
13 - Rubber City - Dark Spanish Symphony (50's Version) (02:43)
14 - Angelo Badalamenti and Kinny Landrum - Dark Lolita (02:16)
15 - Nicolas Cage - Love Me Tender (02:59)

Источник: what.cd
 
Exact Audio Copy V0.99 prebeta 3 from 28. July 2007

EAC extraction logfile from 10. December 2007, 8:08

Various / Wild At Heart: Original Motion Picture Soundtrack

Used drive : SATA-DVDDROM6316 Adapter: 0 ID: 3

Read mode : SecureUtilize accurate stream : YesDefeat audio cache : YesMake use of C2 pointers : No

Read offset correction : 6Overread into Lead-In and Lead-Out : NoFill up missing offset samples with silence : YesDelete leading and trailing silent blocks : NoNull samples used in CRC calculations : YesUsed interface : Installed external ASPI interfaceGap handling : Appended to previous track

Used output format : User Defined EncoderSelected bitrate : 192 kBit/sQuality : HighAdd ID3 tag : NoCommand line compressor : C:\Program Files\Exact Audio Copy\flac.exeAdditional command line options : -8 -A tukey(0.25) -A gauss(0.1875) -b 4096 -V -T "artist=%a" -T "title=%t" -T "album=%g" -T "date=%y" -T "tracknumber=%n" -T "genre=%m" %s --sector-align

TOC of the extracted CD

Track | Start | Length | Start sector | End sector --------------------------------------------------------- 1 | 0:00.33 | 1:47.42 | 33 | 8099 2 | 1:48.00 | 5:21.73 | 8100 | 32247 3 | 7:09.73 | 3:26.27 | 32248 | 47724 4 | 10:36.25 | 2:56.50 | 47725 | 60974 5 | 13:33.00 | 2:41.05 | 60975 | 73054 6 | 16:14.05 | 6:15.25 | 73055 | 101204 7 | 22:29.30 | 4:05.28 | 101205 | 119607 8 | 26:34.58 | 2:38.00 | 119608 | 131457 9 | 29:12.58 | 3:03.32 | 131458 | 145214 10 | 32:16.15 | 4:12.55 | 145215 | 164169 11 | 36:28.70 | 3:59.10 | 164170 | 182104 12 | 40:28.05 | 2:35.50 | 182105 | 193779 13 | 43:03.55 | 2:43.03 | 193780 | 206007 14 | 45:46.58 | 2:16.02 | 206008 | 216209 15 | 48:02.60 | 2:59.35 | 216210 | 229669

Track 1

Filename D:\New FLAC rips\Wild At Heart OST (FLAC)\01 - Gewandhausorchester Leipzig - Richard Strauss- Im Abendrot.wav

Pre-gap length 0:00:02.44

Peak level 91.3 % Track quality 99.9 % Test CRC 51372826 Copy CRC 51372826 Cannot be verified as accurate (confidence 1) [659CB5C3], AccurateRip returned [D9D41931] Copy OK

Track 2

Filename D:\New FLAC rips\Wild At Heart OST (FLAC)\02 - Powermad - Slaughterhouse.wav

Pre-gap length 0:00:00.10

Peak level 91.1 % Track quality 100.0 % Test CRC A8646E84 Copy CRC A8646E84 Cannot be verified as accurate (confidence 1) [4CA55326], AccurateRip returned [AE315CC7] Copy OK

Track 3

Filename D:\New FLAC rips\Wild At Heart OST (FLAC)\03 - Angelo Badalamenti and Kinny Landrum - Cool Cat Walk.wav

Pre-gap length 0:00:01.14

Peak level 78.0 % Track quality 100.0 % Test CRC BFD9BC92 Copy CRC BFD9BC92 Cannot be verified as accurate (confidence 1) [4A38D0CD], AccurateRip returned [9713919F] Copy OK

Track 4

Filename D:\New FLAC rips\Wild At Heart OST (FLAC)\04 - Nicolas Cage - Love Me.wav

Pre-gap length 0:00:02.28

Peak level 90.9 % Track quality 99.9 % Test CRC 34E1FF0F Copy CRC 34E1FF0F Cannot be verified as accurate (confidence 1) [F1584B4D], AccurateRip returned [6FC7BFE2] Copy OK

Track 5

Filename D:\New FLAC rips\Wild At Heart OST (FLAC)\05 - Them - Baby Please Don't Go.wav

Pre-gap length 0:00:01.70

Peak level 88.9 % Track quality 100.0 % Test CRC 5507C135 Copy CRC 5507C135 Cannot be verified as accurate (confidence 2) [C88D6390], AccurateRip returned [D4EE6D5E] Copy OK

Track 6

Filename D:\New FLAC rips\Wild At Heart OST (FLAC)\06 - Koko Taylor - Up In Flames.wav

Pre-gap length 0:00:00.50

Peak level 100.0 % Track quality 100.0 % Test CRC 9D496BDD Copy CRC 9D496BDD Cannot be verified as accurate (confidence 1) [E6474AD0], AccurateRip returned [8133F2CB] Copy OK

Track 7

Filename D:\New FLAC rips\Wild At Heart OST (FLAC)\07 - Chris Isaak - Wicked Game.wav

Pre-gap length 0:00:00.48

Peak level 100.0 % Track quality 99.9 % Test CRC CA1C9E20 Copy CRC CA1C9E20 Cannot be verified as accurate (confidence 2) [BDC80484], AccurateRip returned [ED3AC041] Copy OK

Track 8

Filename D:\New FLAC rips\Wild At Heart OST (FLAC)\08 - Gene Vincent & The Blue Caps - Be-Bop-A-Lula.wav

Pre-gap length 0:00:00.98

Peak level 100.0 % Track quality 100.0 % Test CRC DFAA2491 Copy CRC DFAA2491 Cannot be verified as accurate (confidence 2) [37B1729D], AccurateRip returned [1089CE28] Copy OK

Track 9

Filename D:\New FLAC rips\Wild At Heart OST (FLAC)\09 - Glen Gray and The Casa Loma Orchestra - Smoke Rings.wav

Pre-gap length 0:00:02.78

Peak level 79.7 % Track quality 100.0 % Test CRC 8731DFB0 Copy CRC 8731DFB0 Cannot be verified as accurate (confidence 1) [057D98AA], AccurateRip returned [17E6711E] Copy OK

Track 10

Filename D:\New FLAC rips\Wild At Heart OST (FLAC)\10 - Rubber City - Perdita.wav

Pre-gap length 0:00:01.10

Peak level 100.0 % Track quality 100.0 % Test CRC F13C70FE Copy CRC F13C70FE Cannot be verified as accurate (confidence 1) [EAE294DB], AccurateRip returned [96E3E9E5] Copy OK

Track 11

Filename D:\New FLAC rips\Wild At Heart OST (FLAC)\11 - Chris Isaak - Blue Spanish Sky.wav

Pre-gap length 0:00:01.50

Peak level 89.1 % Track quality 100.0 % Test CRC 8A32CDC7 Copy CRC 8A32CDC7 Cannot be verified as accurate (confidence 1) [945B6D3C], AccurateRip returned [C56D2DE5] Copy OK

Track 12

Filename D:\New FLAC rips\Wild At Heart OST (FLAC)\12 - Angelo Badalamenti and Kinny Landrum - Dark Spanish Symphony (edited - string version).wav

Pre-gap length 0:00:02.74

Peak level 51.6 % Track quality 100.0 % Test CRC DC154FA1 Copy CRC DC154FA1 Cannot be verified as accurate (confidence 1) [61B71917], AccurateRip returned [0FAA8B80] Copy OK

Track 13

Filename D:\New FLAC rips\Wild At Heart OST (FLAC)\13 - Rubber City - Dark Spanish Symphony (50's version).wav

Pre-gap length 0:00:00.88

Peak level 71.2 % Track quality 99.9 % Test CRC 97AF9AC6 Copy CRC 97AF9AC6 Cannot be verified as accurate (confidence 1) [DFD44107], AccurateRip returned [EF1B36E1] Copy OK

Track 14

Filename D:\New FLAC rips\Wild At Heart OST (FLAC)\14 - Angelo Badalamenti and Kinny Landrum - Dark Lolita.wav

Pre-gap length 0:00:02.38

Peak level 33.4 % Track quality 100.0 % Test CRC 06396A14 Copy CRC 06396A14 Cannot be verified as accurate (confidence 1) [5452D112], AccurateRip returned [CDFCEA8A] Copy OK

Track 15

Filename D:\New FLAC rips\Wild At Heart OST (FLAC)\15 - Nicolas Cage - Love Me Tender.wav

Pre-gap length 0:00:02.28

Peak level 97.3 % Track quality 100.0 % Test CRC 05211A91 Copy CRC 05211A91 Cannot be verified as accurate (confidence 1) [8D1BDFD3], AccurateRip returned [641529D5] Copy OK

No tracks could be verified as accurateYou may have a different pressing from the one(s) in the database

No errors occurred

End of status report
 
REM GENRE SoundtrackREM DATE 1990REM DISCID DA0BF60FREM COMMENT "ExactAudioCopy v0.99pb3"PERFORMER "Various"TITLE "Wild At Heart: Original Motion Picture Soundtrack"FILE "01 - Gewandhausorchester Leipzig - Richard Strauss- Im Abendrot.wav" WAVE TRACK 01 AUDIO TITLE "Richard Strauss: Im Abendrot" PERFORMER "Gewandhausorchester Leipzig" PREGAP 00:00:33 INDEX 01 00:00:00 TRACK 02 AUDIO TITLE "Slaughterhouse" PERFORMER "Powermad" INDEX 00 01:47:34FILE "02 - Powermad - Slaughterhouse.wav" WAVE INDEX 01 00:00:00 TRACK 03 AUDIO TITLE "Cool Cat Walk" PERFORMER "Angelo Badalamenti and Kinny Landrum" INDEX 00 05:20:62FILE "03 - Angelo Badalamenti and Kinny Landrum - Cool Cat Walk.wav" WAVE INDEX 01 00:00:00 TRACK 04 AUDIO TITLE "Love Me" PERFORMER "Nicolas Cage" INDEX 00 03:24:06FILE "04 - Nicolas Cage - Love Me.wav" WAVE INDEX 01 00:00:00 TRACK 05 AUDIO TITLE "Baby Please Don't Go" PERFORMER "Them" INDEX 00 02:54:72FILE "05 - Them - Baby Please Don't Go.wav" WAVE INDEX 01 00:00:00 TRACK 06 AUDIO TITLE "Up In Flames" PERFORMER "Koko Taylor" INDEX 00 02:40:42FILE "06 - Koko Taylor - Up In Flames.wav" WAVE INDEX 01 00:00:00 TRACK 07 AUDIO TITLE "Wicked Game" PERFORMER "Chris Isaak" INDEX 00 06:14:64FILE "07 - Chris Isaak - Wicked Game.wav" WAVE INDEX 01 00:00:00 TRACK 08 AUDIO TITLE "Be-Bop-A-Lula" PERFORMER "Gene Vincent & The Blue Caps" INDEX 00 04:04:29FILE "08 - Gene Vincent & The Blue Caps - Be-Bop-A-Lula.wav" WAVE INDEX 01 00:00:00 TRACK 09 AUDIO TITLE "Smoke Rings" PERFORMER "Glen Gray and The Casa Loma Orchestra" INDEX 00 02:35:16FILE "09 - Glen Gray and The Casa Loma Orchestra - Smoke Rings.wav" WAVE INDEX 01 00:00:00 TRACK 10 AUDIO TITLE "Perdita" PERFORMER "Rubber City" INDEX 00 03:02:24FILE "10 - Rubber City - Perdita.wav" WAVE INDEX 01 00:00:00 TRACK 11 AUDIO TITLE "Blue Spanish Sky" PERFORMER "Chris Isaak" INDEX 00 04:11:17FILE "11 - Chris Isaak - Blue Spanish Sky.wav" WAVE INDEX 01 00:00:00 TRACK 12 AUDIO TITLE "Dark Spanish Symphony (edited - string version)" PERFORMER "Angelo Badalamenti and Kinny Landrum" INDEX 00 03:56:29FILE "12 - Angelo Badalamenti and Kinny Landrum - Dark Spanish Symphony (edited - string version).wav" WAVE INDEX 01 00:00:00 TRACK 13 AUDIO TITLE "Dark Spanish Symphony (50's version)" PERFORMER "Rubber City" INDEX 00 02:34:59FILE "13 - Rubber City - Dark Spanish Symphony (50's version).wav" WAVE INDEX 01 00:00:00 TRACK 14 AUDIO TITLE "Dark Lolita" PERFORMER "Angelo Badalamenti and Kinny Landrum" INDEX 00 02:40:49FILE "14 - Angelo Badalamenti and Kinny Landrum - Dark Lolita.wav" WAVE INDEX 01 00:00:00 TRACK 15 AUDIO TITLE "Love Me Tender" PERFORMER "Nicolas Cage" INDEX 00 02:13:56FILE "15 - Nicolas Cage - Love Me Tender.wav" WAVE INDEX 01 00:00:00



Трекер:  [ 08-Июл-2011 18:41 ]

  

Скачать .torrent

Размер .torrent файла 12 KB


Размер: 268 MB
Хэш (hash) релиза: 1fd52211f97b6e1f70908cdc207ee16bbab72e3a

Еще никто не оставлял запись к записи скачать торрент Дикие сердцем Wild at Heart . Будь первым!

!Обратная связь