Скачать через торрент музыку Cool As Ice Самый Крутой бесплатно без регистрации torrent

Если у вас наблюдаются проблемы со скриншотами, переходом по ссылками, скачиванием торрентов - проблемы в блокировщике рекламы AdBlock. #хорошегоДня!


Статистика раздачи
Размер:  282 MB   |    Зарегистрирован:  6 лет 3 месяца   |    .torrent скачан:  40 раз   |   
Раздают:  1  
   
Загрузка...
 
Автор Сообщение

Galfimbul

avatar Galfimbul


Cool As Ice / Самый Крутой

Жанр: Hip-Hop
Год выпуска диска: 1991
Производитель диска: Канада
Аудио кодек: FLAC
Тип рипа: tracks+.cue
Битрейт аудио: lossless
Продолжительность: 45 минут
Трэклист:
01 - Cool As Ice (Everybody Get Loose)/Vanilla Ice Featuring - Naomi Campbell/ (5:31)
02 - Gonna Catch You /Lonnie Gordon/ (3:45)
03 - You've Got To Look Up /Derek B/ (5:40)
04 - Love 2 Love U/Partners In Kryme Featuring - Debbe Cole/ (3:42)
05 - The People's Choice /Vanilla Ice/ (4:09)
06 - Never Wanna Be Without You /Vanilla Ice/ (3:37)
07 - Forever/D'New Featuring - Temple/ (4:39)
08 - Faith /Rozalla/ (3:56)
09 - Drop That Zero /Stanley Clarke/ (5:13)
10 - Get Wit' It /Vanilla Ice/ (5:08)
Exact Audio Copy V0.99 prebeta 4 from 23. January 2008

EAC extraction logfile from 28. August 2008, 2:45

Various / Cool As Ice

Used drive : HL-DT-STDVDRAM GSA-4167B Adapter: 1 ID: 1

Read mode : Secure
Utilize accurate stream : Yes
Defeat audio cache : Yes
Make use of C2 pointers : No

Read offset correction : 667
Overread into Lead-In and Lead-Out : No
Fill up missing offset samples with silence : Yes
Delete leading and trailing silent blocks : No
Null samples used in CRC calculations : Yes
Used interface : Native Win32 interface for Win NT & 2000
Gap handling : Appended to previous track

Used output format : User Defined Encoder
Selected bitrate : 320 kBit/s
Quality : High
Add ID3 tag : Yes
Command line compressor : C:\Archivos de programa\Exact Audio Copy\Flac\flac.exe
Additional command line options : -V -8 -T "artist=%a" -T "title=%t" -T "album=%g" -T "date=%y" -T "tracknumber=%n" -T "genre=%m" %s

TOC of the extracted CD

Track | Start | Length | Start sector | End sector
---------------------------------------------------------
1 | 0:00.32 | 5:32.05 | 32 | 24936
2 | 5:32.37 | 3:46.20 | 24937 | 41906
3 | 9:18.57 | 5:42.43 | 41907 | 67599
4 | 15:01.25 | 3:44.02 | 67600 | 84401
5 | 18:45.27 | 4:11.10 | 84402 | 103236
6 | 22:56.37 | 3:38.65 | 103237 | 119651
7 | 26:35.27 | 4:41.63 | 119652 | 140789
8 | 31:17.15 | 3:57.52 | 140790 | 158616
9 | 35:14.67 | 5:14.73 | 158617 | 182239
10 | 40:29.65 | 5:09.40 | 182240 | 205454

Track 1

Filename C:\Documents and Settings\Neto\Mis documentos\Mi mъsica\what.cd\Cool As Ice\01 - Vanilla Ice featuring Naomi Campbell - Cool As Ice (Everybody Get Loose).wav

Pre-gap length 0:00:02.42

Peak level 100.0 %
Track quality 99.9 %
Test CRC 25F35E75
Copy CRC 25F35E75
Track not present in AccurateRip database
Copy OK

Track 2

Filename C:\Documents and Settings\Neto\Mis documentos\Mi mъsica\what.cd\Cool As Ice\02 - Lonnie Gordon - Gonna Catch You.wav

Pre-gap length 0:00:00.49

Peak level 83.0 %
Track quality 100.0 %
Test CRC 155EA65E
Copy CRC 155EA65E
Track not present in AccurateRip database
Copy OK

Track 3

Filename C:\Documents and Settings\Neto\Mis documentos\Mi mъsica\what.cd\Cool As Ice\03 - Derek B - You've Got To Look Up.wav

Pre-gap length 0:00:00.36

Peak level 92.9 %
Track quality 100.0 %
Test CRC 461C8A31
Copy CRC 461C8A31
Track not present in AccurateRip database
Copy OK

Track 4

Filename C:\Documents and Settings\Neto\Mis documentos\Mi mъsica\what.cd\Cool As Ice\04 - Partners In Kryme featuring Debbe Cole - Love 2 Love U.wav

Pre-gap length 0:00:01.46

Peak level 98.8 %
Track quality 100.0 %
Test CRC 1F3695A2
Copy CRC 1F3695A2
Track not present in AccurateRip database
Copy OK

Track 5

Filename C:\Documents and Settings\Neto\Mis documentos\Mi mъsica\what.cd\Cool As Ice\05 - Vanilla Ice - The People's Choice.wav

Pre-gap length 0:00:01.46

Peak level 93.8 %
Track quality 100.0 %
Test CRC 7FB9A5F0
Copy CRC 7FB9A5F0
Track not present in AccurateRip database
Copy OK

Track 6

Filename C:\Documents and Settings\Neto\Mis documentos\Mi mъsica\what.cd\Cool As Ice\06 - Vanilla Ice - Never Wanna Be Without You.wav

Pre-gap length 0:00:01.26

Peak level 77.0 %
Track quality 100.0 %
Test CRC 4477A1F2
Copy CRC 4477A1F2
Track not present in AccurateRip database
Copy OK

Track 7

Filename C:\Documents and Settings\Neto\Mis documentos\Mi mъsica\what.cd\Cool As Ice\07 - D'New featuring Temple - Forever.wav

Pre-gap length 0:00:00.60

Peak level 97.1 %
Track quality 100.0 %
Test CRC 43D1D949
Copy CRC 43D1D949
Track not present in AccurateRip database
Copy OK

Track 8

Filename C:\Documents and Settings\Neto\Mis documentos\Mi mъsica\what.cd\Cool As Ice\08 - Rozalla - Faith.wav

Pre-gap length 0:00:01.33

Peak level 84.5 %
Track quality 100.0 %
Test CRC F414BE17
Copy CRC F414BE17
Track not present in AccurateRip database
Copy OK

Track 9

Filename C:\Documents and Settings\Neto\Mis documentos\Mi mъsica\what.cd\Cool As Ice\09 - Stanley Clarke - Drop That Zero.wav

Pre-gap length 0:00:00.80

Peak level 90.9 %
Track quality 100.0 %
Test CRC 54436BDF
Copy CRC 54436BDF
Track not present in AccurateRip database
Copy OK

Track 10

Filename C:\Documents and Settings\Neto\Mis documentos\Mi mъsica\what.cd\Cool As Ice\10 - Vanilla Ice - Get Wit' It.wav

Pre-gap length 0:00:01.33

Peak level 89.6 %
Track quality 100.0 %
Test CRC C488A2F4
Copy CRC C488A2F4
Track not present in AccurateRip database
Copy OK

None of the tracks are present in the AccurateRip database

No errors occurred

End of status report


Трекер:  [ 08-Июл-2011 18:42 ]

  

Скачать .torrent

Размер .torrent файла 12 KB


Размер: 282 MB
Хэш (hash) релиза: ce5b4e1656757354950435dddf1f574360819502

Еще никто не оставлял запись к записи скачать торрент Cool As Ice Самый Крутой . Будь первым!

!Обратная связь