Скачать через торрент музыку Jan A. P. Kaczmarek - Aimée & Jaguar бесплатно без регистрации torrent

Если у вас наблюдаются проблемы со скриншотами, переходом по ссылками, скачиванием торрентов - проблемы в блокировщике рекламы AdBlock. #хорошегоДня!


Статистика раздачи
Размер:  299 MB   |    Зарегистрирован:  6 лет 2 месяца   |    .torrent скачан:  42 раза   |   
Раздают:  1  
   
Загрузка...
 
Автор Сообщение

Galfimbul

avatar Galfimbul


Jan A. P. Kaczmarek - Aimée & Jaguar

Жанр: Score / Soundtrack
Год выпуска диска: 1999
Аудио кодек: WAVPack
Тип рипа: image+.cue
Битрейт аудио: lossless
Трэклист:
01. Maria Schrader und Juliane Köhler / Für immer und immer
02. Heinz Rühmann / Ich brech' die Herzen der stolzesten Frauen
03. Berlin
04. First Memories
05. The Lecuona Cuban Boys / Rumba Tumba
06. Lilly's Home
07. Friends
08. Felice on the Street
09. Lilly, Gunter and Felice
10. The Lecuona Cuban Boys / Rumba Azul
11. Aimée & Jaguar
12. Tangolada
13. Lilly and Felice
14. 20th of July
15. The War
16. The Lecuona Cuban Boys / Hindou
17. Felice Arrested
18. Memories of Better Times
19. Friends Again
20. Saxophon Orchester Dobbri / O Donna Clara
21. Aimée & Jaguar - The End
Доп. информация:
 
Exact Audio Copy V0.99 prebeta 3 from 28. July 2007

EAC extraction logfile from 12. December 2007, 19:39

Jan A. P. Kaczmarek / Aimée & Jaguar

Used drive : TSSTcorpDVD-ROM SH-D162C Adapter: 2 ID: 0

Read mode : SecureUtilize accurate stream : YesDefeat audio cache : YesMake use of C2 pointers : No

Read offset correction : 6Overread into Lead-In and Lead-Out : NoFill up missing offset samples with silence : YesDelete leading and trailing silent blocks : NoNull samples used in CRC calculations : YesUsed interface : Native Win32 interface for Win NT & 2000

Used output format : Internal WAV RoutinesSample format : 44.100 Hz; 16 Bit; Stereo

TOC of the extracted CD

Track | Start | Length | Start sector | End sector --------------------------------------------------------- 1 | 0:00.00 | 2:51.25 | 0 | 12849 2 | 2:51.25 | 3:13.40 | 12850 | 27364 3 | 6:04.65 | 1:10.20 | 27365 | 32634 4 | 7:15.10 | 1:27.52 | 32635 | 39211 5 | 8:42.62 | 2:59.68 | 39212 | 52704 6 | 11:42.55 | 1:52.62 | 52705 | 61166 7 | 13:35.42 | 2:45.68 | 61167 | 73609 8 | 16:21.35 | 1:29.40 | 73610 | 80324 9 | 17:51.00 | 1:54.45 | 80325 | 88919 10 | 19:45.45 | 3:17.22 | 88920 | 103716 11 | 23:02.67 | 5:06.55 | 103717 | 126721 12 | 28:09.47 | 2:54.00 | 126722 | 139771 13 | 31:03.47 | 1:35.35 | 139772 | 146931 14 | 32:39.07 | 1:53.70 | 146932 | 155476 15 | 34:33.02 | 3:48.23 | 155477 | 172599 16 | 38:21.25 | 3:01.37 | 172600 | 186211 17 | 41:22.62 | 5:01.38 | 186212 | 208824 18 | 46:24.25 | 3:33.60 | 208825 | 224859 19 | 49:58.10 | 2:18.12 | 224860 | 235221 20 | 52:16.22 | 3:19.05 | 235222 | 250151 21 | 55:35.27 | 5:04.15 | 250152 | 272966

Range status and errors

Selected range

Filename H:\__\Aimée & Jaguar (Jan A. P. Kaczmarek)\Jan A. P. Kaczmarek - Aimée & Jaguar.wav

Peak level 96.9 % Range quality 100.0 % Copy CRC F0DB0507 Copy OK

No errors occurred

AccurateRip summary

Track 1 not present in databaseTrack 2 not present in databaseTrack 3 not present in databaseTrack 4 not present in databaseTrack 5 not present in databaseTrack 6 not present in databaseTrack 7 not present in databaseTrack 8 not present in databaseTrack 9 not present in databaseTrack 10 not present in databaseTrack 11 not present in databaseTrack 12 not present in databaseTrack 13 not present in databaseTrack 14 not present in databaseTrack 15 not present in databaseTrack 16 not present in databaseTrack 17 not present in databaseTrack 18 not present in databaseTrack 19 not present in databaseTrack 20 not present in databaseTrack 21 not present in database

None of the tracks are present in the AccurateRip database

End of status report


Трекер:  [ 08-Июл-2011 18:42 ]

  

Скачать .torrent

Размер .torrent файла 12 KB


Размер: 299 MB
Хэш (hash) релиза: 9dc15ba2ff0edab5becb9d6de96d28ce8484e070

Торренты, похожие на Jan A. P. Kaczmarek - Aimée & Jaguar скачать торрент

Форум Название Автор Размер S L Добавлен
Саундтреки к фильмам и мультфильмам (mp3) ·· (Score) Эйми и Ягуар / Aimée & Jaguar // Aimee & Jaguar (by Jan A.P. Kaczmarek) - 1999 (1998), MP3 (tracks), 320 kbps Galfimbul 181385649173 MB 0 0 1426225803

08:50

13-Мар-15

Еще никто не оставлял запись к записи скачать торрент Jan A. P. Kaczmarek - Aimée & Jaguar . Будь первым!

!Обратная связь