Скачать через торрент музыку Ryuichi Sakamoto - Snake Eyes Глаза змеи - 1998, WAVPack бесплатно без регистрации torrent

Если у вас наблюдаются проблемы со скриншотами, переходом по ссылками, скачиванием торрентов - проблемы в блокировщике рекламы AdBlock. #хорошегоДня!


Статистика раздачи
Размер:  271 MB   |    Зарегистрирован:  6 лет 2 месяца   |    .torrent скачан:  38 раз   |   
Раздают:  1  
   
Загрузка...
 
Автор Сообщение

Galfimbul

avatar Galfimbul


Ryuichi Sakamoto - Snake Eyes / Глаза змеи

Жанр: Score
Год выпуска диска: 1998
Производитель диска: США
Аудио кодек: WAVPack
Тип рипа: image+.cue
Битрейт аудио: lossless
Продолжительность: 00:44:15
Трэклист:
01. Snake Eyes (Short Version)
02. Assassination
03. The Hunt
04. Julia's Story #1
05. Tyler and Serena
06. Kevin Cleans Up
07. You Know Him
08. Blood on the Medals
09. Crawling to Julia
10. The Storm
11. Snake Eyes (Long Version)
12. Sin City (Meredith Brooks)
13. The Freaky Things (LaKiesha Berri)
 
REM GENRE SoundtrackREM DATE 1998REM DISCID 950B370DREM COMMENT "ExactAudioCopy v0.99pb3"PERFORMER "Ryuichi Sakamoto"TITLE "Snake Eyes"FILE "Ryuichi Sakamoto - Snake Eyes.wv" WAVE TRACK 01 AUDIO TITLE "Snake Eyes (Short Version)" PERFORMER "Ryuichi Sakamoto" INDEX 01 00:00:00 TRACK 02 AUDIO TITLE "Assassination" PERFORMER "Ryuichi Sakamoto" INDEX 01 02:51:50 TRACK 03 AUDIO TITLE "The Hunt" PERFORMER "Ryuichi Sakamoto" INDEX 01 05:38:50 TRACK 04 AUDIO TITLE "Julia's Story #1" PERFORMER "Ryuichi Sakamoto" INDEX 01 11:48:40 TRACK 05 AUDIO TITLE "Tyler And Serena" PERFORMER "Ryuichi Sakamoto" INDEX 01 13:11:45 TRACK 06 AUDIO TITLE "Kevin Cleans Up" PERFORMER "Ryuichi Sakamoto" INDEX 01 17:49:45 TRACK 07 AUDIO TITLE "You Know Him" PERFORMER "Ryuichi Sakamoto" INDEX 01 20:03:15 TRACK 08 AUDIO TITLE "Blood On The Medals" PERFORMER "Ryuichi Sakamoto" INDEX 01 22:22:52 TRACK 09 AUDIO TITLE "Crawling To Julia" PERFORMER "Ryuichi Sakamoto" INDEX 01 24:24:62 TRACK 10 AUDIO TITLE "The Storm" PERFORMER "Ryuichi Sakamoto" INDEX 01 27:48:67 TRACK 11 AUDIO TITLE "Snake Eyes (Long Version)" PERFORMER "Ryuichi Sakamoto" INDEX 01 32:19:40 TRACK 12 AUDIO TITLE "Sin City (Meredith Brooks)" PERFORMER "Ryuichi Sakamoto" INDEX 01 39:59:32 TRACK 13 AUDIO TITLE "The Freaky Things (LaKiesha Berri)" PERFORMER "Ryuichi Sakamoto" INDEX 01 44:15:40[pre/]
[pre]Exact Audio Copy V0.99 prebeta 3 from 28. July 2007

EAC extraction logfile from 29. January 2008, 18:24

Ryuichi Sakamoto / Snake Eyes

Used drive : HL-DT-STDVDRRW GSA-H30L Adapter: 0 ID: 1

Read mode : Secure
Utilize accurate stream : Yes
Defeat audio cache : Yes
Make use of C2 pointers : No

Read offset correction : 102
Overread into Lead-In and Lead-Out : No
Fill up missing offset samples with silence : Yes
Delete leading and trailing silent blocks : No
Null samples used in CRC calculations : Yes
Used interface : Installed external ASPI interface

Used output format : User Defined Encoder
Selected bitrate : 1024 kBit/s
Quality : High
Add ID3 tag : No
Command line compressor : C:\Users\Rita & Renata\Desktop\Installers\Drivers\wavpack-4.41\wavpack.exe
Additional command line options : -w "Artist=%a" -w "Title=%t" -w "Album=%g" -w "Year=%y" -w "Track=%n" -w "Genre=%m" -h %s %d
Use compression offset : 102

TOC of the extracted CD

Track | Start | Length | Start sector | End sector
---------------------------------------------------------
1 | 0:00.00 | 2:51.50 | 0 | 12874
2 | 2:51.50 | 2:47.00 | 12875 | 25399
3 | 5:38.50 | 6:09.65 | 25400 | 53139
4 | 11:48.40 | 1:23.05 | 53140 | 59369
5 | 13:11.45 | 4:38.00 | 59370 | 80219
6 | 17:49.45 | 2:13.45 | 80220 | 90239
7 | 20:03.15 | 2:19.37 | 90240 | 100701
8 | 22:22.52 | 2:02.10 | 100702 | 109861
9 | 24:24.62 | 3:24.05 | 109862 | 125166
10 | 27:48.67 | 4:30.48 | 125167 | 145464
11 | 32:19.40 | 7:39.67 | 145465 | 179956
12 | 39:59.32 | 4:16.08 | 179957 | 199164
13 | 44:15.40 | 3:36.10 | 199165 | 215374

Range status and errors

Selected range

Filename C:\FLAC&APE\My Ripps\Ryuichi Sakamoto\Ryuichi Sakamoto - Snake Eyes.wav

Peak level 97.7 %
Range quality 100.0 %
Copy CRC C06A1095
Copy OK

No errors occurred

AccurateRip summary

Track 1 not present in database
Track 2 not present in database
Track 3 not present in database
Track 4 not present in database
Track 5 not present in database
Track 6 not present in database
Track 7 not present in database
Track 8 not present in database
Track 9 not present in database
Track 10 not present in database
Track 11 not present in database
Track 12 not present in database
Track 13 not present in database

None of the tracks are present in the AccurateRip database

End of status report


Трекер:  [ 08-Июл-2011 18:43 ]

  

Скачать .torrent

Размер .torrent файла 11 KB


Размер: 271 MB
Хэш (hash) релиза: d899117fdae97d57824dbc2eb30770cab5b77318

Еще никто не оставлял запись к записи скачать торрент Ryuichi Sakamoto - Snake Eyes Глаза змеи - 1998, WAVPack . Будь первым!

!Обратная связь