Скачать через торрент музыку Black Snake Moan Стон черной змеи - 2006, FLAC бесплатно без регистрации torrent

Если у вас наблюдаются проблемы со скриншотами, переходом по ссылками, скачиванием торрентов - проблемы в блокировщике рекламы AdBlock. #хорошегоДня!


Статистика раздачи
Размер:  293 MB   |    Зарегистрирован:  6 лет 2 месяца   |    .torrent скачан:  55 раз   |   
Раздают:  1  
   
Загрузка...
 
Автор Сообщение

Galfimbul

avatar Galfimbul


Black Snake Moan / Стон черной змеи


Жанр: Soundtrack / Blues
Год выпуска : 2006
Аудио кодек: FLAC
Тип рипа: tracks+.cue
Битрейт аудио: lossless
Продолжительность: 00:49:42
Рип: drdoc - What CD
01. Scott Bomar - Opening Theme [color=gray](0:38)
02. Son House - Ain't But One Kind of Blues (0:12)
03. Samuel L. Jackson - Just Like A Bird Without A Feather (2:23)
04. The Black Keys - When The Lights Go Out (3:13)
05. Jessie Mae Hemphill - Standing In My Doorway Crying (4:40)
06. Bobby Rush - Chicken Heads (2:32)
07. Samuel L. Jackson - Black Snake Moan (4:05)
08. Precious Bryant - Morning Train (3:01)
09. John Doe - The Losing Kind (2:33)
10. Outrageous Cherry - Lord Have Mercy On Me (3:05)
11. Scott Bomar - Ronnie And Rae's Theme (1:08)
12. Scott Bomar - The Chain (2:51)
13. Samuel L. Jackson - Alice Mae (3:48)
14. Samuel L. Jackson - Stack-O-Lee (3:30)
15. R.L. Burnside - Old Black Mattie (4:11)
16. Son House - That's Where The Blues Started (0:22)
17. North Mississippi Allstars - Mean Ol' Wind Died Down (7:32)
 
X Lossless Decoder version 20080926 (93.3)

XLD extraction logfile from 2008-12-07 16:58:35 -0600

Various Artists / Black Snake Moan Soundtrack

Used drive : SONY DVD RW DRU-V200S (revision 1.60)

Use cdparanoia mode : YES (CDParanoia III 10.2 engine)Disable audio cache : OK for the drive with cache less than 2750KBMake use of C2 pointers : NORead offset correction : 48Max retry count : 100

TOC of the extracted CD Track | Start | Length | Start sector | End sector --------------------------------------------------------- 1 | 00:00:00 | 00:38:14 | 0 | 2863 2 | 00:38:14 | 00:11:66 | 2864 | 3754 3 | 00:50:05 | 02:22:38 | 3755 | 14442 4 | 03:12:43 | 03:13:14 | 14443 | 28931 5 | 06:25:57 | 04:40:01 | 28932 | 49932 6 | 11:05:58 | 02:32:33 | 49933 | 61365 7 | 13:38:16 | 04:04:45 | 61366 | 79710 8 | 17:42:61 | 03:00:47 | 79711 | 93257 9 | 20:43:33 | 02:33:08 | 93258 | 104740 10 | 23:16:41 | 03:04:65 | 104741 | 118605 11 | 26:21:31 | 01:08:18 | 118606 | 123723 12 | 27:29:49 | 02:50:54 | 123724 | 136527 13 | 30:20:28 | 03:48:07 | 136528 | 153634 14 | 34:08:35 | 03:30:27 | 153635 | 169411 15 | 37:38:62 | 04:10:60 | 169412 | 188221 16 | 41:49:47 | 00:21:41 | 188222 | 189837 17 | 42:11:13 | 07:31:58 | 189838 | 223720

Track 01 Filename : /Users/doc/Documents/News/Various/BoLB/Various Artists - Black Snake Moan [2007]/01 - Scott Bomar - Opening Theme.flac

CRC32 hash (test run) : 08D51837 CRC32 hash : 08D51837 CRC32 hash (skip zero) : F17E4B65 AccurateRip signature : 035390BC ->Accurately ripped! (confidence 8) Statistics Read error : 0 Skipped (treated as error) : 0 Edge jitter error (maybe fixed) : 0 Atom jitter error (maybe fixed) : 0 Drift error (maybe fixed) : 0 Dropped bytes error (maybe fixed) : 0 Duplicated bytes error (maybe fixed) : 0 Inconsistency in error sectors : 0

Track 02 Filename : /Users/doc/Documents/News/Various/BoLB/Various Artists - Black Snake Moan [2007]/02 - Son House - Ain't But One Kind of Blues.flac

CRC32 hash (test run) : EA5E59AA CRC32 hash : EA5E59AA CRC32 hash (skip zero) : 558179E7 AccurateRip signature : F50DC685 ->Accurately ripped! (confidence 8) Statistics Read error : 0 Skipped (treated as error) : 0 Edge jitter error (maybe fixed) : 0 Atom jitter error (maybe fixed) : 0 Drift error (maybe fixed) : 0 Dropped bytes error (maybe fixed) : 0 Duplicated bytes error (maybe fixed) : 0 Inconsistency in error sectors : 0

Track 03 Filename : /Users/doc/Documents/News/Various/BoLB/Various Artists - Black Snake Moan [2007]/03 - Samuel L. Jackson - Just Like A Bird Without A Feather.flac

CRC32 hash (test run) : 8B2DB677 CRC32 hash : 8B2DB677 CRC32 hash (skip zero) : FC0E8CD4 AccurateRip signature : 3605CA1B ->Accurately ripped! (confidence 8) Statistics Read error : 0 Skipped (treated as error) : 0 Edge jitter error (maybe fixed) : 1 Atom jitter error (maybe fixed) : 0 Drift error (maybe fixed) : 0 Dropped bytes error (maybe fixed) : 0 Duplicated bytes error (maybe fixed) : 0 Inconsistency in error sectors : 0

Track 04 Filename : /Users/doc/Documents/News/Various/BoLB/Various Artists - Black Snake Moan [2007]/04 - The Black Keys - When The Lights Go Out.flac

CRC32 hash (test run) : 1B5E2A09 CRC32 hash : 1B5E2A09 CRC32 hash (skip zero) : 7FBCE7F3 AccurateRip signature : 6628C942 ->Accurately ripped! (confidence 8) Statistics Read error : 0 Skipped (treated as error) : 0 Edge jitter error (maybe fixed) : 0 Atom jitter error (maybe fixed) : 0 Drift error (maybe fixed) : 0 Dropped bytes error (maybe fixed) : 0 Duplicated bytes error (maybe fixed) : 0 Inconsistency in error sectors : 0

Track 05 Filename : /Users/doc/Documents/News/Various/BoLB/Various Artists - Black Snake Moan [2007]/05 - Jessie Mae Hemphill - Standing In My Doorway Crying.flac

CRC32 hash (test run) : 28C5C4DA CRC32 hash : 28C5C4DA CRC32 hash (skip zero) : A1BF00D3 AccurateRip signature : FB3F2F03 ->Accurately ripped! (confidence 8) Statistics Read error : 0 Skipped (treated as error) : 0 Edge jitter error (maybe fixed) : 0 Atom jitter error (maybe fixed) : 0 Drift error (maybe fixed) : 0 Dropped bytes error (maybe fixed) : 0 Duplicated bytes error (maybe fixed) : 0 Inconsistency in error sectors : 0

Track 06 Filename : /Users/doc/Documents/News/Various/BoLB/Various Artists - Black Snake Moan [2007]/06 - Bobby Rush - Chicken Heads.flac

CRC32 hash (test run) : 70A8A8A6 CRC32 hash : 70A8A8A6 CRC32 hash (skip zero) : 453B6CD5 AccurateRip signature : 39812B5A ->Accurately ripped! (confidence 8) Statistics Read error : 0 Skipped (treated as error) : 0 Edge jitter error (maybe fixed) : 0 Atom jitter error (maybe fixed) : 0 Drift error (maybe fixed) : 0 Dropped bytes error (maybe fixed) : 0 Duplicated bytes error (maybe fixed) : 0 Inconsistency in error sectors : 0

Track 07 Filename : /Users/doc/Documents/News/Various/BoLB/Various Artists - Black Snake Moan [2007]/07 - Samuel L. Jackson - Black Snake Moan.flac

CRC32 hash (test run) : 8B24D74E CRC32 hash : 8B24D74E CRC32 hash (skip zero) : 7B2FDAA5 AccurateRip signature : A36D3A13 ->Accurately ripped! (confidence 8) Statistics Read error : 0 Skipped (treated as error) : 0 Edge jitter error (maybe fixed) : 1 Atom jitter error (maybe fixed) : 0 Drift error (maybe fixed) : 0 Dropped bytes error (maybe fixed) : 1 Duplicated bytes error (maybe fixed) : 1 Inconsistency in error sectors : 0

Track 08 Filename : /Users/doc/Documents/News/Various/BoLB/Various Artists - Black Snake Moan [2007]/08 - Precious Bryant - Morning Train.flac

CRC32 hash (test run) : 534A64EF CRC32 hash : 534A64EF CRC32 hash (skip zero) : 75CFFA80 AccurateRip signature : D1DCE45B ->Accurately ripped! (confidence 8) Statistics Read error : 0 Skipped (treated as error) : 0 Edge jitter error (maybe fixed) : 0 Atom jitter error (maybe fixed) : 0 Drift error (maybe fixed) : 0 Dropped bytes error (maybe fixed) : 0 Duplicated bytes error (maybe fixed) : 0 Inconsistency in error sectors : 0

Track 09 Filename : /Users/doc/Documents/News/Various/BoLB/Various Artists - Black Snake Moan [2007]/09 - John Doe - The Losing Kind.flac

CRC32 hash (test run) : 4B5A9750 CRC32 hash : 4B5A9750 CRC32 hash (skip zero) : 66A35BC3 AccurateRip signature : 802F78D2 ->Accurately ripped! (confidence 8) Statistics Read error : 0 Skipped (treated as error) : 0 Edge jitter error (maybe fixed) : 0 Atom jitter error (maybe fixed) : 0 Drift error (maybe fixed) : 0 Dropped bytes error (maybe fixed) : 0 Duplicated bytes error (maybe fixed) : 0 Inconsistency in error sectors : 0

Track 10 Filename : /Users/doc/Documents/News/Various/BoLB/Various Artists - Black Snake Moan [2007]/10 - Outrageous Cherry - Lord Have Mercy On Me.flac

CRC32 hash (test run) : 1E75F3FA CRC32 hash : 1E75F3FA CRC32 hash (skip zero) : 443E1376 AccurateRip signature : 5AADD005 ->Accurately ripped! (confidence 8) Statistics Read error : 0 Skipped (treated as error) : 0 Edge jitter error (maybe fixed) : 0 Atom jitter error (maybe fixed) : 0 Drift error (maybe fixed) : 0 Dropped bytes error (maybe fixed) : 0 Duplicated bytes error (maybe fixed) : 0 Inconsistency in error sectors : 0

Track 11 Filename : /Users/doc/Documents/News/Various/BoLB/Various Artists - Black Snake Moan [2007]/11 - Scott Bomar - Ronnie And Rae's Theme.flac

CRC32 hash (test run) : 5F002D96 CRC32 hash : 5F002D96 CRC32 hash (skip zero) : 8DF0730C AccurateRip signature : C351EDBB ->Accurately ripped! (confidence 8) Statistics Read error : 0 Skipped (treated as error) : 0 Edge jitter error (maybe fixed) : 0 Atom jitter error (maybe fixed) : 0 Drift error (maybe fixed) : 0 Dropped bytes error (maybe fixed) : 0 Duplicated bytes error (maybe fixed) : 0 Inconsistency in error sectors : 0

Track 12 Filename : /Users/doc/Documents/News/Various/BoLB/Various Artists - Black Snake Moan [2007]/12 - Scott Bomar - The Chain.flac

CRC32 hash (test run) : BBAC299D CRC32 hash : BBAC299D CRC32 hash (skip zero) : 1704664C AccurateRip signature : C8B3CB63 ->Accurately ripped! (confidence 8) Statistics Read error : 0 Skipped (treated as error) : 0 Edge jitter error (maybe fixed) : 0 Atom jitter error (maybe fixed) : 0 Drift error (maybe fixed) : 0 Dropped bytes error (maybe fixed) : 0 Duplicated bytes error (maybe fixed) : 0 Inconsistency in error sectors : 0

Track 13 Filename : /Users/doc/Documents/News/Various/BoLB/Various Artists - Black Snake Moan [2007]/13 - Samuel L. Jackson - Alice Mae.flac

CRC32 hash (test run) : 27A819FF CRC32 hash : 27A819FF CRC32 hash (skip zero) : 6BD4536D AccurateRip signature : 6B862ADF ->Accurately ripped! (confidence 8) Statistics Read error : 0 Skipped (treated as error) : 0 Edge jitter error (maybe fixed) : 0 Atom jitter error (maybe fixed) : 0 Drift error (maybe fixed) : 0 Dropped bytes error (maybe fixed) : 0 Duplicated bytes error (maybe fixed) : 0 Inconsistency in error sectors : 0

Track 14 Filename : /Users/doc/Documents/News/Various/BoLB/Various Artists - Black Snake Moan [2007]/14 - Samuel L. Jackson - Stack-O-Lee.flac

CRC32 hash (test run) : 7BA4A520 CRC32 hash : 7BA4A520 CRC32 hash (skip zero) : 6AF71083 AccurateRip signature : 6F0F986B ->Accurately ripped! (confidence 8) Statistics Read error : 0 Skipped (treated as error) : 0 Edge jitter error (maybe fixed) : 0 Atom jitter error (maybe fixed) : 0 Drift error (maybe fixed) : 0 Dropped bytes error (maybe fixed) : 0 Duplicated bytes error (maybe fixed) : 0 Inconsistency in error sectors : 0

Track 15 Filename : /Users/doc/Documents/News/Various/BoLB/Various Artists - Black Snake Moan [2007]/15 - R.L. Burnside - Old Black Mattie.flac

CRC32 hash (test run) : 3B9D631A CRC32 hash : 3B9D631A CRC32 hash (skip zero) : 5553B67F AccurateRip signature : 5840454A ->Accurately ripped! (confidence 8) Statistics Read error : 0 Skipped (treated as error) : 0 Edge jitter error (maybe fixed) : 0 Atom jitter error (maybe fixed) : 0 Drift error (maybe fixed) : 0 Dropped bytes error (maybe fixed) : 0 Duplicated bytes error (maybe fixed) : 0 Inconsistency in error sectors : 0

Track 16 Filename : /Users/doc/Documents/News/Various/BoLB/Various Artists - Black Snake Moan [2007]/16 - Son House - That's Where The Blues Started.flac

CRC32 hash (test run) : 9D489348 CRC32 hash : 9D489348 CRC32 hash (skip zero) : 5CCA8F09 AccurateRip signature : 171A4EA1 ->Accurately ripped! (confidence 8) Statistics Read error : 0 Skipped (treated as error) : 0 Edge jitter error (maybe fixed) : 0 Atom jitter error (maybe fixed) : 0 Drift error (maybe fixed) : 0 Dropped bytes error (maybe fixed) : 0 Duplicated bytes error (maybe fixed) : 0 Inconsistency in error sectors : 0

Track 17 Filename : /Users/doc/Documents/News/Various/BoLB/Various Artists - Black Snake Moan [2007]/17 - North Mississippi Allstars - Mean Ol' Wind Died Down.flac

CRC32 hash (test run) : D774978D CRC32 hash : D774978D CRC32 hash (skip zero) : 7AC826E1 AccurateRip signature : 94943FA0 ->Accurately ripped! (confidence 8) Statistics Read error : 0 Skipped (treated as error) : 0 Edge jitter error (maybe fixed) : 0 Atom jitter error (maybe fixed) : 0 Drift error (maybe fixed) : 0 Dropped bytes error (maybe fixed) : 0 Duplicated bytes error (maybe fixed) : 0 Inconsistency in error sectors : 0

No errors occurred

End of status report
 
REM GENRE "Soundtrack"TITLE "Black Snake Moan"REM DATE 2006FILE "01 - Scott Bomar - Opening Theme.wav" WAVE TRACK 01 AUDIO TITLE "Opening Theme" PERFORMER "Scott Bomar" INDEX 01 00:00:00FILE "02 - Son House - Ain't But One Kind of Blues.wav" WAVE TRACK 02 AUDIO TITLE "Ain't But One Kind of Blues" PERFORMER "Son House" INDEX 01 00:00:00FILE "03 - Samuel L. Jackson - Just Like A Bird Without A Feather.wav" WAVE TRACK 03 AUDIO TITLE "Just Like A Bird Without A Feather" PERFORMER "Samuel L. Jackson" INDEX 01 00:00:00FILE "04 - The Black Keys - When The Lights Go Out.wav" WAVE TRACK 04 AUDIO TITLE "When The Lights Go Out" PERFORMER "The Black Keys" INDEX 01 00:00:00FILE "05 - Jessie Mae Hemphill - Standing In My Doorway Crying.wav" WAVE TRACK 05 AUDIO TITLE "Standing In My Doorway Crying" PERFORMER "Jessie Mae Hemphill" INDEX 01 00:00:00FILE "06 - Bobby Rush - Chicken Heads.wav" WAVE TRACK 06 AUDIO TITLE "Chicken Heads" PERFORMER "Bobby Rush" INDEX 01 00:00:00FILE "07 - Samuel L. Jackson - Black Snake Moan.wav" WAVE TRACK 07 AUDIO TITLE "Black Snake Moan" PERFORMER "Samuel L. Jackson" INDEX 01 00:00:00FILE "08 - Precious Bryant - Morning Train.wav" WAVE TRACK 08 AUDIO TITLE "Morning Train" PERFORMER "Precious Bryant" INDEX 01 00:00:00FILE "09 - John Doe - The Losing Kind.wav" WAVE TRACK 09 AUDIO TITLE "The Losing Kind" PERFORMER "John Doe" INDEX 01 00:00:00FILE "10 - Outrageous Cherry - Lord Have Mercy On Me.wav" WAVE TRACK 10 AUDIO TITLE "Lord Have Mercy On Me" PERFORMER "Outrageous Cherry" INDEX 01 00:00:00FILE "11 - Scott Bomar - Ronnie And Rae's Theme.wav" WAVE TRACK 11 AUDIO TITLE "Ronnie And Rae's Theme" PERFORMER "Scott Bomar" INDEX 01 00:00:00FILE "12 - Scott Bomar - The Chain.wav" WAVE TRACK 12 AUDIO TITLE "The Chain" PERFORMER "Scott Bomar" INDEX 01 00:00:00FILE "13 - Samuel L. Jackson - Alice Mae.wav" WAVE TRACK 13 AUDIO TITLE "Alice Mae" PERFORMER "Samuel L. Jackson" INDEX 01 00:00:00FILE "14 - Samuel L. Jackson - Stack-O-Lee.wav" WAVE TRACK 14 AUDIO TITLE "Stack-O-Lee" PERFORMER "Samuel L. Jackson" INDEX 01 00:00:00FILE "15 - R.L. Burnside - Old Black Mattie.wav" WAVE TRACK 15 AUDIO TITLE "Old Black Mattie" PERFORMER "R.L. Burnside" INDEX 01 00:00:00FILE "16 - Son House - That's Where The Blues Started.wav" WAVE TRACK 16 AUDIO TITLE "That's Where The Blues Started" PERFORMER "Son House" INDEX 01 00:00:00FILE "17 - North Mississippi Allstars - Mean Ol' Wind Died Down.wav" WAVE TRACK 17 AUDIO TITLE "Mean Ol' Wind Died Down" PERFORMER "North Mississippi Allstars" INDEX 01 00:00:00
 
Started at: суббота, 05. 06. 2010. - 13:27.55

17 files found

01 -===- C:\Downloads\Music\Другое\VA - Black Snake Moan - 2006\01 - Scott Bomar - Opening Theme.flac Extracted successfully Conclusion: This track looks like CDDA with probability 100% Tempfile successfully deleted.

02 -===- C:\Downloads\Music\Другое\VA - Black Snake Moan - 2006\02 - Son House - Ain't But One Kind of Blues.flac Extracted successfully Conclusion: This track looks like CDDA with probability 100% Tempfile successfully deleted.

03 -===- C:\Downloads\Music\Другое\VA - Black Snake Moan - 2006\03 - Samuel L. Jackson - Just Like A Bird Without A Feather.flac Extracted successfully Conclusion: This track looks like CDDA with probability 100% Tempfile successfully deleted.

04 -===- C:\Downloads\Music\Другое\VA - Black Snake Moan - 2006\04 - The Black Keys - When The Lights Go Out.flac Extracted successfully Conclusion: This track looks like CDDA with probability 100% Tempfile successfully deleted.

05 -===- C:\Downloads\Music\Другое\VA - Black Snake Moan - 2006\05 - Jessie Mae Hemphill - Standing In My Doorway Crying.flac Extracted successfully Conclusion: This track looks like CDDA with probability 100% Tempfile successfully deleted.

06 -===- C:\Downloads\Music\Другое\VA - Black Snake Moan - 2006\06 - Bobby Rush - Chicken Heads.flac Extracted successfully Conclusion: This track looks like CDDA with probability 100% Tempfile successfully deleted.

07 -===- C:\Downloads\Music\Другое\VA - Black Snake Moan - 2006\07 - Samuel L. Jackson - Black Snake Moan.flac Extracted successfully Conclusion: This track looks like CDDA with probability 100% Tempfile successfully deleted.

08 -===- C:\Downloads\Music\Другое\VA - Black Snake Moan - 2006\08 - Precious Bryant - Morning Train.flac Extracted successfully Conclusion: This track looks like CDDA with probability 100% Tempfile successfully deleted.

09 -===- C:\Downloads\Music\Другое\VA - Black Snake Moan - 2006\09 - John Doe - The Losing Kind.flac Extracted successfully Conclusion: This track looks like CDDA with probability 100% Tempfile successfully deleted.

10 -===- C:\Downloads\Music\Другое\VA - Black Snake Moan - 2006\10 - Outrageous Cherry - Lord Have Mercy On Me.flac Extracted successfully Conclusion: This track looks like CDDA with probability 100% Tempfile successfully deleted.

11 -===- C:\Downloads\Music\Другое\VA - Black Snake Moan - 2006\11 - Scott Bomar - Ronnie And Rae's Theme.flac Extracted successfully Conclusion: This track looks like CDDA with probability 100% Tempfile successfully deleted.

12 -===- C:\Downloads\Music\Другое\VA - Black Snake Moan - 2006\12 - Scott Bomar - The Chain.flac Extracted successfully Conclusion: This track looks like CDDA with probability 100% Tempfile successfully deleted.

13 -===- C:\Downloads\Music\Другое\VA - Black Snake Moan - 2006\13 - Samuel L. Jackson - Alice Mae.flac Extracted successfully Conclusion: This track looks like CDDA with probability 100% Tempfile successfully deleted.

14 -===- C:\Downloads\Music\Другое\VA - Black Snake Moan - 2006\14 - Samuel L. Jackson - Stack-O-Lee.flac Extracted successfully Conclusion: This track looks like CDDA with probability 100% Tempfile successfully deleted.

15 -===- C:\Downloads\Music\Другое\VA - Black Snake Moan - 2006\15 - R.L. Burnside - Old Black Mattie.flac Extracted successfully Conclusion: This track looks like CDDA with probability 99% Tempfile successfully deleted.

16 -===- C:\Downloads\Music\Другое\VA - Black Snake Moan - 2006\16 - Son House - That's Where The Blues Started.flac Extracted successfully Conclusion: This track looks like CDDA with probability 58% Tempfile successfully deleted.

17 -===- C:\Downloads\Music\Другое\VA - Black Snake Moan - 2006\17 - North Mississippi Allstars - Mean Ol' Wind Died Down.flac Extracted successfully Conclusion: This track looks like CDDA with probability 100% Tempfile successfully deleted.

Finished at: суббота, 05. 06. 2010. - 13:37.54 (operation time: 0:09.58)


Трекер:  [ 08-Июл-2011 18:45 ]

  

Скачать .torrent

Размер .torrent файла 14 KB


Размер: 293 MB
Хэш (hash) релиза: e640fd7de3d3ae16bb610509f523d7535c936937

Еще никто не оставлял запись к записи скачать торрент Black Snake Moan Стон черной змеи - 2006, FLAC . Будь первым!

!Обратная связь