Скачать через торрент музыку Last Man Standing бесплатно без регистрации torrent

Если у вас наблюдаются проблемы со скриншотами, переходом по ссылками, скачиванием торрентов - проблемы в блокировщике рекламы AdBlock. #хорошегоДня!


Статистика раздачи
Размер:  150 MB   |    Зарегистрирован:  6 лет 2 месяца   |    .torrent скачан:  417 раз   |   
Раздают:  1  
   
Загрузка...
 
Автор Сообщение

Galfimbul

avatar Galfimbul


Elmer Bernstein - Last Man Standing (Inspired) / Последний уцелевший

Жанр: Score
Год выпуска диска: 1996
Производитель диска: USA
Аудио кодек: FLAC
Тип рипа: tracks+.cue
Битрейт аудио: lossless
Продолжительность: 32:27

Трэклист:

01. Elmer Bernstein - To Jericho
02. Elmer Bernstein - First Guns
03. Elmer Bernstein - Hijacking
04. Elmer Bernstein - Hello
05. Elmer Bernstein - Change
06. Elmer Bernstein - Felina's Story
07. Elmer Bernstein - Free
08. Elmer Bernstein - The Beating
09. Elmer Bernstein - Enough
10. Elmer Bernstein - Saving Joe
11. Elmer Bernstein - One Of The Last
Exact Audio Copy V0.99 prebeta 5 from 4. May 2009

EAC extraction logfile from 3. August 2009, 14:24

Elmer Bernstein / Last Man Standing

Used drive : Optiarc DVD RW AD-7170A Adapter: 0 ID: 0

Read mode : Secure
Utilize accurate stream : Yes
Defeat audio cache : Yes
Make use of C2 pointers : No

Read offset correction : 48
Overread into Lead-In and Lead-Out : No
Fill up missing offset samples with silence : Yes
Delete leading and trailing silent blocks : No
Null samples used in CRC calculations : Yes
Used interface : Native Win32 interface for Win NT & 2000
Gap handling : Appended to previous track

Used output format : User Defined Encoder
Selected bitrate : 320 kBit/s
Quality : High
Add ID3 tag : No
Command line compressor : C:\Program Files\Exact Audio Copy\Flac\flac.exe
Additional command line options : -8 -V -T "ARTIST=%a" -T "TITLE=%t" -T "ALBUM=%g" -T "DATE=%y" -T "TRACKNUMBER=%n" -T "GENRE=%m" -T "COMMENT=EAC FLAC -8" %s

TOC of the extracted CD

Track | Start | Length | Start sector | End sector
---------------------------------------------------------
1 | 0:00.00 | 3:51.56 | 0 | 17380
2 | 3:51.56 | 2:27.51 | 17381 | 28456
3 | 6:19.32 | 2:16.40 | 28457 | 38696
4 | 8:35.72 | 1:41.53 | 38697 | 46324
5 | 10:17.50 | 1:25.06 | 46325 | 52705
6 | 11:42.56 | 4:00.22 | 52706 | 70727
7 | 15:43.03 | 3:31.30 | 70728 | 86582
8 | 19:14.33 | 6:59.62 | 86583 | 118069
9 | 26:14.20 | 1:23.10 | 118070 | 124304
10 | 27:37.30 | 1:46.27 | 124305 | 132281
11 | 29:23.57 | 3:03.33 | 132282 | 146039

Track 1

Filename K:\Last Man Standing\ 01. Elmer Bernstein – To Jericho.wav

Pre-gap length 0:00:02.00

Peak level 98.4 %
Track quality 99.9 %
Test CRC 47FDE001
Copy CRC 47FDE001
Copy OK

Track 2

Filename K:\Last Man Standing\ 02. Elmer Bernstein – First Guns.wav

Peak level 91.3 %
Track quality 100.0 %
Test CRC 2734577B
Copy CRC 2734577B
Copy OK

Track 3

Filename K:\Last Man Standing\ 03. Elmer Bernstein – Hijacking.wav

Peak level 93.7 %
Track quality 100.0 %
Test CRC C066934D
Copy CRC C066934D
Copy OK

Track 4

Filename K:\Last Man Standing\ 04. Elmer Bernstein – Hello.wav

Peak level 75.7 %
Track quality 100.0 %
Test CRC 3F9B5587
Copy CRC 3F9B5587
Copy OK

Track 5

Filename K:\Last Man Standing\ 05. Elmer Bernstein – Change.wav

Peak level 92.1 %
Track quality 100.0 %
Test CRC D70EFC99
Copy CRC D70EFC99
Copy OK

Track 6

Filename K:\Last Man Standing\ 06. Elmer Bernstein – Felina's Story.wav

Peak level 92.7 %
Track quality 100.0 %
Test CRC AD84D2C3
Copy CRC AD84D2C3
Copy OK

Track 7

Filename K:\Last Man Standing\ 07. Elmer Bernstein – Free.wav

Peak level 97.3 %
Track quality 100.0 %
Test CRC 179C8295
Copy CRC 179C8295
Copy OK

Track 8

Filename K:\Last Man Standing\ 08. Elmer Bernstein – The Beating.wav

Peak level 98.4 %
Track quality 100.0 %
Test CRC F4A102AE
Copy CRC F4A102AE
Copy OK

Track 9

Filename K:\Last Man Standing\ 09. Elmer Bernstein – Enough.wav

Peak level 97.5 %
Track quality 100.0 %
Test CRC CFAD915D
Copy CRC CFAD915D
Copy OK

Track 10

Filename K:\Last Man Standing\ 10. Elmer Bernstein – Saving Joe.wav

Peak level 78.8 %
Track quality 100.0 %
Test CRC D9110936
Copy CRC D9110936
Copy OK

Track 11

Filename K:\Last Man Standing\ 11. Elmer Bernstein – One Of The Last.wav

Peak level 100.0 %
Track quality 100.0 %
Test CRC 4131E183
Copy CRC 4131E183
Copy OK

No errors occurred

End of status report


Трекер:  [ 08-Июл-2011 18:45 ]

  

Скачать .torrent

Размер .torrent файла 13 KB


Размер: 150 MB
Хэш (hash) релиза: d95d99de10770f21e8570b1016fa77f16cd02ab6

Еще никто не оставлял запись к записи скачать торрент Last Man Standing . Будь первым!

!Обратная связь