Скачать через торрент музыку Gabriel Yared & VA - The Next Best Thing - 2000, FLAC бесплатно без регистрации torrent

Если у вас наблюдаются проблемы со скриншотами, переходом по ссылками, скачиванием торрентов - проблемы в блокировщике рекламы AdBlock. #хорошегоДня!


Статистика раздачи
Размер:  310 MB   |    Зарегистрирован:  6 лет 2 месяца   |    .torrent скачан:  38 раз   |   
Раздают:  1  
   
Загрузка...
 
Автор Сообщение

Galfimbul

avatar Galfimbul


Gabriel Yared & VA - The Next Best Thing

Жанр: Soundtrack
Год выпуска диска: 2000
Аудио кодек: FLAC
Тип рипа: tracks+.cue
Битрейт аудио: lossless
Трэклист:
1. Métisse - Boom Boom Ba 3:42
Producer - Magnus Fiennes
2. Manu Chao - Bongo Song 2:55
Producer - Manu Chao , Renaud Letang
3. Christina Aguilera - Don't Make Me Love You ('Til I'm Ready) 3:40
Executive Producer, Other [A&r Direction] - Ron Fair
Mixed By - Peter Mokran
Producer - Todd Chapman
Programmed By [Additional], Technician [Sound Design] - Ryeland Allison
4. Madonna - American Pie 4:34
Backing Vocals - Rupert Everett
Guitar, Drums, Keyboards - William Orbit
Mixed By - Mark "Spike" Stent*
Producer - Madonna , William Orbit
Programmed By [Sequencer] - Rico Conning
5. Mandalay - This Life 4:19
Producer - Guy Sigsworth , Mandalay
6. Groove Armada - If Everybody Looked The Same 3:40
Producer - Groove Armada
7. Moby - Why Does My Heart Feel So Bad? 4:24
Producer - Moby
8. Olive - I'm Not In Love 4:41
Producer - Roger Lyons , Tim Kellett
9. Beth Orton - Stars All Seem To Weep 4:39
Producer - Ben Watt
10. Madonna - Time Stood Still 3:48
Arranged By [Strings], Keyboards - Damian LeGassick
Guitar, Drums, Keyboards - William Orbit
Mixed By - Mark "Spike" Stent*
Producer, Written-By - Madonna , William Orbit
11. Solar Twins - Swayambhu 3:08
Producer, Mixed By - David Norland
Vocals - Joanna Stevens
Written By - Joanna Stevens & David Norland
12. Gabriel Yared - Forever And Always 6:01
Guitar - Chris Cawte , Clem Clempson , John Parricelli
Harmonica - Brendan Power
Producer - Gabriel Yared
Programmed By [Synthesizer], Synthesizer - Allan Jenkins , Kirsty Whalley
Recorded By, Remix - John Richards
Saxophone - Dave Roach
Violin - Rolf Wilson
 
Exact Audio Copy V0.99 prebeta 5 from 4. May 2009

EAC extraction logfile from 8. November 2009, 16:18

Various / The Next Best Thing

Used drive : HL-DT-STDVDRAM GSA-H44N Adapter: 1 ID: 0

Read mode : SecureUtilize accurate stream : YesDefeat audio cache : YesMake use of C2 pointers : No

Read offset correction : 667Overread into Lead-In and Lead-Out : NoFill up missing offset samples with silence : YesDelete leading and trailing silent blocks : NoNull samples used in CRC calculations : YesUsed interface : Installed external ASPI interfaceGap handling : Appended to previous track

Used output format : User Defined EncoderSelected bitrate : 1024 kBit/sQuality : HighAdd ID3 tag : NoCommand line compressor : C:\Programmi\Exact Audio Copy\FLAC\flac.exeAdditional command line options : -V -8 -T "artist=%a" -T "title=%t" -T "album=%g" -T "date=%y" -T "tracknumber=%n" -T "genre=%m" %s

TOC of the extracted CD

Track | Start | Length | Start sector | End sector --------------------------------------------------------- 1 | 0:00.00 | 3:41.50 | 0 | 16624 2 | 3:41.50 | 2:55.00 | 16625 | 29749 3 | 6:36.50 | 3:39.50 | 29750 | 46224 4 | 10:16.25 | 4:33.40 | 46225 | 66739 5 | 14:49.65 | 4:18.65 | 66740 | 86154 6 | 19:08.55 | 3:39.57 | 86155 | 102636 7 | 22:48.37 | 4:23.43 | 102637 | 122404 8 | 27:12.05 | 4:41.25 | 122405 | 143504 9 | 31:53.30 | 4:39.15 | 143505 | 164444 10 | 36:32.45 | 3:48.02 | 164445 | 181546 11 | 40:20.47 | 3:07.68 | 181547 | 195639 12 | 43:28.40 | 6:00.50 | 195640 | 222689

Track 1

Filename C:\EACrips\Various- The Next Best Thing\01 - Boom Boom BA.wav

Pre-gap length 0:00:02.00

Peak level 97.3 % Track quality 100.0 % Test CRC EE58084E Copy CRC EE58084E Accurately ripped (confidence 13) [FE2E4120] Copy OK

Track 2

Filename C:\EACrips\Various- The Next Best Thing\02 - Bongo Bong.wav

Pre-gap length 0:00:01.20

Peak level 86.1 % Track quality 99.9 % Test CRC 87DF1CAD Copy CRC 87DF1CAD Accurately ripped (confidence 13) [3F18679A] Copy OK

Track 3

Filename C:\EACrips\Various- The Next Best Thing\03 - Don`t Make Me Love You ('Til I'm Ready).wav

Pre-gap length 0:00:02.73

Peak level 95.0 % Track quality 100.0 % Test CRC 4FB9BF74 Copy CRC 4FB9BF74 Accurately ripped (confidence 12) [0171E229] Copy OK

Track 4

Filename C:\EACrips\Various- The Next Best Thing\04 - American Pie.wav

Pre-gap length 0:00:01.30

Peak level 99.8 % Track quality 100.0 % Test CRC EB088570 Copy CRC EB088570 Accurately ripped (confidence 13) [5C2DEE01] Copy OK

Track 5

Filename C:\EACrips\Various- The Next Best Thing\05 - This Life.wav

Pre-gap length 0:00:00.73

Peak level 99.8 % Track quality 100.0 % Test CRC 22AA0239 Copy CRC 22AA0239 Accurately ripped (confidence 12) [17AE404A] Copy OK

Track 6

Filename C:\EACrips\Various- The Next Best Thing\06 - If Everybody Looked The Same.wav

Pre-gap length 0:00:00.17

Peak level 99.8 % Track quality 100.0 % Test CRC 5A49245E Copy CRC 5A49245E Accurately ripped (confidence 12) [50094816] Copy OK

Track 7

Filename C:\EACrips\Various- The Next Best Thing\07 - Why Does My Heart Feel So Bad .wav

Pre-gap length 0:00:00.93

Peak level 92.8 % Track quality 100.0 % Test CRC 6BBD28FC Copy CRC 6BBD28FC Accurately ripped (confidence 13) [8C9EFF04] Copy OK

Track 8

Filename C:\EACrips\Various- The Next Best Thing\08 - I`m Not In Love.wav

Pre-gap length 0:00:00.17

Peak level 92.3 % Track quality 100.0 % Test CRC 29FB2F4D Copy CRC 29FB2F4D Accurately ripped (confidence 12) [D680D4DA] Copy OK

Track 9

Filename C:\EACrips\Various- The Next Best Thing\09 - Stars All Seem To Weep.wav

Pre-gap length 0:00:00.60

Peak level 99.8 % Track quality 100.0 % Test CRC 022E572E Copy CRC 022E572E Accurately ripped (confidence 12) [ECD60D25] Copy OK

Track 10

Filename C:\EACrips\Various- The Next Best Thing\10 - Time Stood Still.wav

Pre-gap length 0:00:00.17

Peak level 99.8 % Track quality 100.0 % Test CRC 0A067DC6 Copy CRC 0A067DC6 Accurately ripped (confidence 12) [565843A7] Copy OK

Track 11

Filename C:\EACrips\Various- The Next Best Thing\11 - Swayambhu.wav

Pre-gap length 0:00:02.09

Peak level 88.9 % Track quality 100.0 % Test CRC CCE35232 Copy CRC CCE35232 Accurately ripped (confidence 12) [0FDEAAEB] Copy OK

Track 12

Filename C:\EACrips\Various- The Next Best Thing\12 - Forever And Always.wav

Pre-gap length 0:00:00.26

Peak level 99.6 % Track quality 99.9 % Test CRC CBFCCEA2 Copy CRC CBFCCEA2 Accurately ripped (confidence 11) [A8A09665] Copy OK

All tracks accurately ripped

No errors occurred

End of status report


Трекер:  [ 09-Июл-2011 00:32 ]

  

Скачать .torrent

Размер .torrent файла 13 KB


Размер: 310 MB
Хэш (hash) релиза: e26e66bf868e15685386a7469552e300ba7d32ff

Еще никто не оставлял запись к записи скачать торрент Gabriel Yared & VA - The Next Best Thing - 2000, FLAC . Будь первым!

!Обратная связь