Скачать через торрент музыку Стукач Snitch бесплатно без регистрации torrent

Если у вас наблюдаются проблемы со скриншотами, переходом по ссылками, скачиванием торрентов - проблемы в блокировщике рекламы AdBlock. #хорошегоДня!


Статистика раздачи
Размер:  269 MB   |    Зарегистрирован:  4 года 3 месяца   |    .torrent скачан:  22 раза   |   
Раздают:  1  
   
Загрузка...
 
Автор Сообщение

Galfimbul

avatar Galfimbul


Стукач / Snitch


Жанр: Score || Композитор: Antonio Pinto || Год выпуска диска: 2013 || Страна-производитель диска: США || Аудио кодек: FLAC (*.flac) || Тип рипа: tracks+.cue || Битрейт аудио: lossless || Продолжительность: 01:03:14 || Источник: what.cd || Наличие сканов в содержимом раздачи: да
Треклист:
01. The Ecstasy (1:40)
02. Morning (1:05)
03. The Bust (1:51)
04. Minimum Sentence (2:05)
05. Jail Talk (3:28)
06. Looking For A Con (1:15)
07. Dan's Breakfast (2:43)
08. House Fight (2:06)
09. Cartel Move (9:51)
10. Driving Back (0:48)
11. Baseball Move (9:20)
12. John To Jail (2:47)
13. Malik (3:39)
14. For The Money (2:56)
15. The Farm (5:05)
16. Truck Fight (4:33)
17. Poetic (2:34)
18. Snitch (4:22)
19. Guitarra (1:06)
Exact Audio Copy V1.0 beta 3 from 29. August 2011

EAC extraction logfile from 28. February 2013, 19:51

Antonio Pinto / Snitch

Used drive : HL-DT-STBD-RE BH10LS38 Adapter: 1 ID: 0

Read mode : SecureUtilize accurate stream : YesDefeat audio cache : YesMake use of C2 pointers : No

Read offset correction : 667Overread into Lead-In and Lead-Out : NoFill up missing offset samples with silence : YesDelete leading and trailing silent blocks : NoNull samples used in CRC calculations : YesUsed interface : Native Win32 interface for Win NT & 2000Gap handling : Appended to previous track

Used output format : User Defined EncoderSelected bitrate : 768 kBit/sQuality : HighAdd ID3 tag : NoCommand line compressor : C:\Program Files (x86)\Exact Audio Copy\FLAC\FLAC.EXEAdditional command line options : -8 -V -T "ARTIST=%artist%" -T "TITLE=%title%" -T "ALBUM=%albumtitle%" -T "DATE=%year%" -T "TRACKNUMBER=%tracknr%" -T "GENRE=%genre%" -T "PERFORMER=%albuminterpret%" -T "COMPOSER=%composer%" %haslyrics%--tag-from-file=LYRICS="%lyricsfile%"%haslyrics% -T "ALBUMARTIST=%albumartist%" -T "ALBUM ARTIST=%albumartist%" -T "DISCNUMBER=%cdnumber%" -T "TOTALDISCS=%totalcds%" -T "TOTALTRACKS=%numtracks%" -T "COMMENT=%comment%" %source% -o %dest%

TOC of the extracted CD

Track | Start | Length | Start sector | End sector --------------------------------------------------------- 1 | 0:00.00 | 1:39.66 | 0 | 7490 2 | 1:39.66 | 1:04.46 | 7491 | 12336 3 | 2:44.37 | 1:51.35 | 12337 | 20696 4 | 4:35.72 | 2:05.21 | 20697 | 30092 5 | 6:41.18 | 3:28.10 | 30093 | 45702 6 | 10:09.28 | 1:14.70 | 45703 | 51322 7 | 11:24.23 | 2:42.38 | 51323 | 63510 8 | 14:06.61 | 2:06.30 | 63511 | 72990 9 | 16:13.16 | 9:51.05 | 72991 | 117320 10 | 26:04.21 | 0:48.32 | 117321 | 120952 11 | 26:52.53 | 9:19.55 | 120953 | 162932 12 | 36:12.33 | 2:47.20 | 162933 | 175477 13 | 38:59.53 | 3:39.09 | 175478 | 191911 14 | 42:38.62 | 2:55.41 | 191912 | 205077 15 | 45:34.28 | 5:05.01 | 205078 | 227953 16 | 50:39.29 | 4:33.12 | 227954 | 248440 17 | 55:12.41 | 2:34.09 | 248441 | 259999 18 | 57:46.50 | 4:21.46 | 260000 | 279620 19 | 62:08.21 | 1:05.57 | 279621 | 284552

Track 1

Filename C:\Users\chris\Desktop\Rips\01 - The Ecstasy.wav

Pre-gap length 0:00:02.00

Peak level 79.5 % Extraction speed 1.0 X Track quality 100.0 % Test CRC 0A455812 Copy CRC 0A455812 Track not present in AccurateRip database Copy OK

Track 2

Filename C:\Users\chris\Desktop\Rips\02 - Morning.wav

Pre-gap length 0:00:00.26

Peak level 77.7 % Extraction speed 0.9 X Track quality 100.0 % Test CRC 6ACD3AFA Copy CRC 6ACD3AFA Track not present in AccurateRip database Copy OK

Track 3

Filename C:\Users\chris\Desktop\Rips\03 - The Bust.wav

Pre-gap length 0:00:00.31

Peak level 81.1 % Extraction speed 1.1 X Track quality 100.0 % Test CRC A36B387E Copy CRC A36B387E Track not present in AccurateRip database Copy OK

Track 4

Filename C:\Users\chris\Desktop\Rips\04 - Minimum Sentence.wav

Pre-gap length 0:00:00.58

Peak level 81.3 % Extraction speed 1.2 X Track quality 100.0 % Test CRC 8B0A7189 Copy CRC 8B0A7189 Track not present in AccurateRip database Copy OK

Track 5

Filename C:\Users\chris\Desktop\Rips\05 - Jail Talk.wav

Pre-gap length 0:00:00.73

Peak level 80.2 % Extraction speed 1.2 X Track quality 99.9 % Test CRC 01D787E3 Copy CRC 01D787E3 Track not present in AccurateRip database Copy OK

Track 6

Filename C:\Users\chris\Desktop\Rips\06 - Looking For A Con.wav

Pre-gap length 0:00:01.36

Peak level 81.5 % Extraction speed 1.2 X Track quality 100.0 % Test CRC 89F93A66 Copy CRC 89F93A66 Track not present in AccurateRip database Copy OK

Track 7

Filename C:\Users\chris\Desktop\Rips\07 - Dan's Breakfast.wav

Pre-gap length 0:00:00.66

Peak level 73.1 % Extraction speed 1.5 X Track quality 100.0 % Test CRC 2BBD7A1F Copy CRC 2BBD7A1F Track not present in AccurateRip database Copy OK

Track 8

Filename C:\Users\chris\Desktop\Rips\08 - House Fight.wav

Pre-gap length 0:00:00.35

Peak level 76.4 % Extraction speed 1.5 X Track quality 100.0 % Test CRC E724E23F Copy CRC E724E23F Track not present in AccurateRip database Copy OK

Track 9

Filename C:\Users\chris\Desktop\Rips\09 - Cartel Move.wav

Pre-gap length 0:00:01.45

Peak level 77.9 % Extraction speed 2.0 X Track quality 100.0 % Test CRC 0F40F4B4 Copy CRC 0F40F4B4 Track not present in AccurateRip database Copy OK

Track 10

Filename C:\Users\chris\Desktop\Rips\10 - Driving Back.wav

Pre-gap length 0:00:01.45

Peak level 80.9 % Extraction speed 0.9 X Track quality 99.7 % Test CRC 3502653C Copy CRC 3502653C Track not present in AccurateRip database Copy OK

Track 11

Filename C:\Users\chris\Desktop\Rips\11 - Baseball Move.wav

Pre-gap length 0:00:02.24

Peak level 77.4 % Extraction speed 2.1 X Track quality 99.9 % Test CRC 06E13161 Copy CRC 06E13161 Track not present in AccurateRip database Copy OK

Track 12

Filename C:\Users\chris\Desktop\Rips\12 - John To Jail.wav

Pre-gap length 0:00:01.59

Peak level 81.1 % Extraction speed 2.1 X Track quality 100.0 % Test CRC 6E0E5D14 Copy CRC 6E0E5D14 Track not present in AccurateRip database Copy OK

Track 13

Filename C:\Users\chris\Desktop\Rips\13 - Malik.wav

Pre-gap length 0:00:01.71

Peak level 76.9 % Extraction speed 2.0 X Track quality 99.9 % Test CRC 3E464D39 Copy CRC 3E464D39 Track not present in AccurateRip database Copy OK

Track 14

Filename C:\Users\chris\Desktop\Rips\14 - For The Money.wav

Pre-gap length 0:00:01.51

Peak level 78.4 % Extraction speed 2.2 X Track quality 100.0 % Test CRC C53C3C9C Copy CRC C53C3C9C Track not present in AccurateRip database Copy OK

Track 15

Filename C:\Users\chris\Desktop\Rips\15 - The Farm.wav

Pre-gap length 0:00:02.60

Peak level 77.4 % Extraction speed 2.5 X Track quality 100.0 % Test CRC 4FE9B8F5 Copy CRC 4FE9B8F5 Track not present in AccurateRip database Copy OK

Track 16

Filename C:\Users\chris\Desktop\Rips\16 - Truck Fight.wav

Pre-gap length 0:00:01.08

Peak level 80.9 % Extraction speed 2.5 X Track quality 100.0 % Test CRC 929FB0DB Copy CRC 929FB0DB Track not present in AccurateRip database Copy OK

Track 17

Filename C:\Users\chris\Desktop\Rips\17 - Poetic.wav

Pre-gap length 0:00:01.73

Peak level 77.9 % Extraction speed 2.4 X Track quality 100.0 % Test CRC C85624FE Copy CRC C85624FE Track not present in AccurateRip database Copy OK

Track 18

Filename C:\Users\chris\Desktop\Rips\18 - Snitch.wav

Pre-gap length 0:00:02.01

Peak level 77.6 % Extraction speed 2.4 X Track quality 99.9 % Test CRC 7F7E56C6 Copy CRC 7F7E56C6 Track not present in AccurateRip database Copy OK

Track 19

Filename C:\Users\chris\Desktop\Rips\19 - Guitarra.wav

Pre-gap length 0:00:01.25

Peak level 78.1 % Extraction speed 1.4 X Track quality 99.8 % Test CRC 38AC7E0C Copy CRC 38AC7E0C Track not present in AccurateRip database Copy OK

None of the tracks are present in the AccurateRip database

No errors occurred

End of status report

==== Log checksum 96AD6C071702A50A065769598AA661BC398D33E5D58E185BA3B90F67E8E5B729 ====
REM GENRE SoundtrackREM DATE 2013REM DISCID F70ED213REM COMMENT "ExactAudioCopy v1.0b3"PERFORMER "Antonio Pinto"TITLE "Snitch"FILE "01 - The Ecstasy.wav" WAVE TRACK 01 AUDIO TITLE "The Ecstasy" PERFORMER "Antonio Pinto" INDEX 01 00:00:00 TRACK 02 AUDIO TITLE "Morning" PERFORMER "Antonio Pinto" INDEX 00 01:39:40FILE "02 - Morning.wav" WAVE INDEX 01 00:00:00 TRACK 03 AUDIO TITLE "The Bust" PERFORMER "Antonio Pinto" INDEX 00 01:04:15FILE "03 - The Bust.wav" WAVE INDEX 01 00:00:00 TRACK 04 AUDIO TITLE "Minimum Sentence" PERFORMER "Antonio Pinto" INDEX 00 01:50:52FILE "04 - Minimum Sentence.wav" WAVE INDEX 01 00:00:00 TRACK 05 AUDIO TITLE "Jail Talk" PERFORMER "Antonio Pinto" INDEX 00 02:04:23FILE "05 - Jail Talk.wav" WAVE INDEX 01 00:00:00 TRACK 06 AUDIO TITLE "Looking For A Con" PERFORMER "Antonio Pinto" INDEX 00 03:26:49FILE "06 - Looking For A Con.wav" WAVE INDEX 01 00:00:00 TRACK 07 AUDIO TITLE "Dan's Breakfast" PERFORMER "Antonio Pinto" INDEX 00 01:14:04FILE "07 - Dan's Breakfast.wav" WAVE INDEX 01 00:00:00 TRACK 08 AUDIO TITLE "House Fight" PERFORMER "Antonio Pinto" INDEX 00 02:42:03FILE "08 - House Fight.wav" WAVE INDEX 01 00:00:00 TRACK 09 AUDIO TITLE "Cartel Move" PERFORMER "Antonio Pinto" INDEX 00 02:04:60FILE "09 - Cartel Move.wav" WAVE INDEX 01 00:00:00 TRACK 10 AUDIO TITLE "Driving Back" PERFORMER "Antonio Pinto" INDEX 00 09:49:35FILE "10 - Driving Back.wav" WAVE INDEX 01 00:00:00 TRACK 11 AUDIO TITLE "Baseball Move" PERFORMER "Antonio Pinto" INDEX 00 00:46:08FILE "11 - Baseball Move.wav" WAVE INDEX 01 00:00:00 TRACK 12 AUDIO TITLE "John To Jail" PERFORMER "Antonio Pinto" INDEX 00 09:17:71FILE "12 - John To Jail.wav" WAVE INDEX 01 00:00:00 TRACK 13 AUDIO TITLE "Malik" PERFORMER "Antonio Pinto" INDEX 00 02:45:24FILE "13 - Malik.wav" WAVE INDEX 01 00:00:00 TRACK 14 AUDIO TITLE "For The Money" PERFORMER "Antonio Pinto" INDEX 00 03:37:33FILE "14 - For The Money.wav" WAVE INDEX 01 00:00:00 TRACK 15 AUDIO TITLE "The Farm" PERFORMER "Antonio Pinto" INDEX 00 02:52:56FILE "15 - The Farm.wav" WAVE INDEX 01 00:00:00 TRACK 16 AUDIO TITLE "Truck Fight" PERFORMER "Antonio Pinto" INDEX 00 05:03:68FILE "16 - Truck Fight.wav" WAVE INDEX 01 00:00:00 TRACK 17 AUDIO TITLE "Poetic" PERFORMER "Antonio Pinto" INDEX 00 04:31:14FILE "17 - Poetic.wav" WAVE INDEX 01 00:00:00 TRACK 18 AUDIO TITLE "Snitch" PERFORMER "Antonio Pinto" INDEX 00 02:32:08FILE "18 - Snitch.wav" WAVE INDEX 01 00:00:00 TRACK 19 AUDIO TITLE "Guitarra" PERFORMER "Antonio Pinto" INDEX 00 04:20:21FILE "19 - Guitarra.wav" WAVE INDEX 01 00:00:00




Трекер:  [ 12-Июн-2013 16:35 ]

  

Скачать .torrent

Размер .torrent файла 12 KB


Размер: 269 MB
Хэш (hash) релиза: 4e5b36cedd93f08f030458a739679a5e91b189cf

bot

Топик был перенесен в форум Саундтреки к фильмам и мультфильмам (lossless)

Перенес Galfimbul

Хотите добавить комментарий к записи скачать торрент Стукач Snitch

!Обратная связь