Скачать через торрент музыку Будь круче Be Cool - 2005, FLAC бесплатно без регистрации torrent

Если у вас наблюдаются проблемы со скриншотами, переходом по ссылками, скачиванием торрентов - проблемы в блокировщике рекламы AdBlock. #хорошегоДня!


Статистика раздачи
Размер:  343 MB   |    Зарегистрирован:  6 лет 2 месяца   |    .torrent скачан:  62 раза   |   
Раздают:  1  
   
Загрузка...
 
Автор Сообщение

Galfimbul

avatar Galfimbul


Будь круче / Be Cool

Жанр: Soundtrack
Год выпуска диска: 2005
Производитель диска: USA
Аудио кодек: FLAC
Тип рипа: tracks+.cue
Битрейт аудио: lossless
Продолжительность: 53 мин
Источник: what.cd
Трэклист:
1. Fantasy - Earth, Wind & Fire (3:46)
2. Hollywood Swinging - Kool & The Gang (3:26)
3. Be Thankful For What You Got - William DeVaughan (5:45)
4. Roda - Elis Regina (2:36)
5. Sexy - Black Eyed Peas (4:44)
6. Suga Suga (Reggae Mix) - Baby Bash (4:10)
7. The Boss - James Brown (3:12)
8. Ain't No Reason - Christina Milian (3:13)
9. Believer - Christina Milian (3:14)
10. Brand New Old Skool - 777 (4:34)
11. G's And Soldiers - Planet Asia & Kurupt (4:12)
12. Cool Chili (Original Motion Picture Score) - John Powell (3:56)
13. A Cowboy's Work Is Never Done - Cher & Sonny (3:15)
14. You Ain't Woman Enough - The Rock (3:22)
 
Exact Audio Copy V0.99 prebeta 5 from 4. May 2009

EAC extraction logfile from 31. May 2009, 0:44

Various Artists / Be Cool: Original Motion Picture Soundtrack

Used drive : TSSTcorpDVD+-RW TS-L632D Adapter: 1 ID: 0

Read mode : SecureUtilize accurate stream : YesDefeat audio cache : YesMake use of C2 pointers : No

Read offset correction : 6Overread into Lead-In and Lead-Out : NoFill up missing offset samples with silence : YesDelete leading and trailing silent blocks : NoNull samples used in CRC calculations : YesUsed interface : Installed external ASPI interfaceGap handling : Appended to previous track

Used output format : User Defined EncoderSelected bitrate : 128 kBit/sQuality : HighAdd ID3 tag : NoCommand line compressor : J:\Program Files\Exact Audio Copy\Flac\flac.exeAdditional command line options : -V -8 -T "artist=%a" -T "title=%t" -T "album=%g" -T "date=%y" -T "tracknumber=%n" -T "genre=%m" %s

TOC of the extracted CD

Track | Start | Length | Start sector | End sector --------------------------------------------------------- 1 | 0:00.00 | 3:46.53 | 0 | 17002 2 | 3:46.53 | 3:26.17 | 17003 | 32469 3 | 7:12.70 | 5:45.57 | 32470 | 58401 4 | 12:58.52 | 2:35.72 | 58402 | 70098 5 | 15:34.49 | 4:44.50 | 70099 | 91448 6 | 20:19.24 | 4:10.48 | 91449 | 110246 7 | 24:29.72 | 3:12.45 | 110247 | 124691 8 | 27:42.42 | 3:12.74 | 124692 | 139165 9 | 30:55.41 | 3:14.19 | 139166 | 153734 10 | 34:09.60 | 4:34.38 | 153735 | 174322 11 | 38:44.23 | 4:12.20 | 174323 | 193242 12 | 42:56.43 | 3:56.19 | 193243 | 210961 13 | 46:52.62 | 3:15.16 | 210962 | 225602 14 | 50:08.03 | 3:31.29 | 225603 | 241456

Track 1

Filename J:\EAC Rips\Be Cool- Original Motion Picture Soundtrack - 2005\01 - Earth, Wind & Fire - Fantasy.wav

Pre-gap length 0:00:02.00

Peak level 97.7 % Track quality 100.0 % Test CRC 8C6F35B8 Copy CRC 8C6F35B8 Accurately ripped (confidence 2) [B6EC7B6C] Copy OK

Track 2

Filename J:\EAC Rips\Be Cool- Original Motion Picture Soundtrack - 2005\02 - Kool & The Gang - Hollywood Swinging.wav

Peak level 97.7 % Track quality 99.9 % Test CRC 4778E631 Copy CRC 4778E631 Accurately ripped (confidence 2) [B85C44DC] Copy OK

Track 3

Filename J:\EAC Rips\Be Cool- Original Motion Picture Soundtrack - 2005\03 - William DeVaughn - Be Thankful For What You Got.wav

Peak level 97.7 % Track quality 100.0 % Test CRC CF6F2B71 Copy CRC CF6F2B71 Accurately ripped (confidence 2) [956827DE] Copy OK

Track 4

Filename J:\EAC Rips\Be Cool- Original Motion Picture Soundtrack - 2005\04 - Elis Regina - Roda.wav

Peak level 95.4 % Track quality 100.0 % Test CRC 12F05264 Copy CRC 12F05264 Accurately ripped (confidence 2) [2CFBB5BC] Copy OK

Track 5

Filename J:\EAC Rips\Be Cool- Original Motion Picture Soundtrack - 2005\05 - Black Eyed Peas - Sexy.wav

Peak level 65.9 % Track quality 100.0 % Test CRC 223933F0 Copy CRC 223933F0 Accurately ripped (confidence 2) [E9A4E020] Copy OK

Track 6

Filename J:\EAC Rips\Be Cool- Original Motion Picture Soundtrack - 2005\06 - Baby Bash - Suga Suga (Reggae mix).wav

Pre-gap length 0:00:01.08

Peak level 91.1 % Track quality 100.0 % Test CRC EC0141AE Copy CRC EC0141AE Accurately ripped (confidence 2) [221AF2B0] Copy OK

Track 7

Filename J:\EAC Rips\Be Cool- Original Motion Picture Soundtrack - 2005\07 - James Brown - The Boss.wav

Peak level 91.1 % Track quality 99.9 % Test CRC 2A360F95 Copy CRC 2A360F95 Accurately ripped (confidence 2) [BDA2E9B4] Copy OK

Track 8

Filename J:\EAC Rips\Be Cool- Original Motion Picture Soundtrack - 2005\08 - Christina Milian - Ain't No Reason.wav

Peak level 97.7 % Track quality 100.0 % Test CRC CB1F7BD4 Copy CRC CB1F7BD4 Accurately ripped (confidence 2) [1E11F8C9] Copy OK

Track 9

Filename J:\EAC Rips\Be Cool- Original Motion Picture Soundtrack - 2005\09 - Christina Milian - Believer.wav

Peak level 95.3 % Track quality 99.9 % Test CRC FC6CC52D Copy CRC FC6CC52D Accurately ripped (confidence 2) [9652B19F] Copy OK

Track 10

Filename J:\EAC Rips\Be Cool- Original Motion Picture Soundtrack - 2005\10 - 777 - Brand New Old Skool.wav

Peak level 91.1 % Track quality 100.0 % Test CRC 79897C9D Copy CRC 79897C9D Accurately ripped (confidence 2) [23E6D101] Copy OK

Track 11

Filename J:\EAC Rips\Be Cool- Original Motion Picture Soundtrack - 2005\11 - Planet Asia feat. Kurupt - G's and Soldiers.wav

Peak level 97.7 % Track quality 100.0 % Test CRC E9698758 Copy CRC E9698758 Accurately ripped (confidence 2) [538044B3] Copy OK

Track 12

Filename J:\EAC Rips\Be Cool- Original Motion Picture Soundtrack - 2005\12 - John Powell - Cool Chili.wav

Peak level 97.7 % Track quality 100.0 % Test CRC 88F98D54 Copy CRC 88F98D54 Accurately ripped (confidence 2) [3E55066F] Copy OK

Track 13

Filename J:\EAC Rips\Be Cool- Original Motion Picture Soundtrack - 2005\13 - Sonny & Cher - A Cowboy's Work is Never Done.wav

Peak level 93.2 % Track quality 100.0 % Test CRC 9745B8D8 Copy CRC 9745B8D8 Accurately ripped (confidence 2) [CC825B86] Copy OK

Track 14

Filename J:\EAC Rips\Be Cool- Original Motion Picture Soundtrack - 2005\14 - The Rock - You Ain't Woman Enough.wav

Peak level 97.7 % Track quality 100.0 % Test CRC 22B0E657 Copy CRC 22B0E657 Accurately ripped (confidence 2) [2FE4DCD0] Copy OK

All tracks accurately ripped

No errors occurred

End of status report
 
REM GENRE SoundtrackREM DATE 2005REM DISCID B10C930EREM COMMENT "ExactAudioCopy v0.99pb5"PERFORMER "Various Artists"TITLE "Be Cool: Original Motion Picture Soundtrack"FILE "01 - Earth, Wind & Fire - Fantasy.wav" WAVE TRACK 01 AUDIO TITLE "Fantasy" PERFORMER "Earth, Wind & Fire" INDEX 01 00:00:00FILE "02 - Kool & The Gang - Hollywood Swinging.wav" WAVE TRACK 02 AUDIO TITLE "Hollywood Swinging" PERFORMER "Kool & The Gang" INDEX 01 00:00:00FILE "03 - William DeVaughn - Be Thankful For What You Got.wav" WAVE TRACK 03 AUDIO TITLE "Be Thankful For What You Got" PERFORMER "William DeVaughn" INDEX 01 00:00:00FILE "04 - Elis Regina - Roda.wav" WAVE TRACK 04 AUDIO TITLE "Roda" PERFORMER "Elis Regina" INDEX 01 00:00:00FILE "05 - Black Eyed Peas - Sexy.wav" WAVE TRACK 05 AUDIO TITLE "Sexy" PERFORMER "Black Eyed Peas" INDEX 01 00:00:00 TRACK 06 AUDIO TITLE "Suga Suga (Reggae mix)" PERFORMER "Baby Bash" INDEX 00 04:43:44FILE "06 - Baby Bash - Suga Suga (Reggae mix).wav" WAVE INDEX 01 00:00:00FILE "07 - James Brown - The Boss.wav" WAVE TRACK 07 AUDIO TITLE "The Boss" PERFORMER "James Brown" INDEX 01 00:00:00FILE "08 - Christina Milian - Ain't No Reason.wav" WAVE TRACK 08 AUDIO TITLE "Ain't No Reason" PERFORMER "Christina Milian" INDEX 01 00:00:00FILE "09 - Christina Milian - Believer.wav" WAVE TRACK 09 AUDIO TITLE "Believer" PERFORMER "Christina Milian" INDEX 01 00:00:00FILE "10 - 777 - Brand New Old Skool.wav" WAVE TRACK 10 AUDIO TITLE "Brand New Old Skool" PERFORMER "777" INDEX 01 00:00:00FILE "11 - Planet Asia feat. Kurupt - G's and Soldiers.wav" WAVE TRACK 11 AUDIO TITLE "G's and Soldiers" PERFORMER "Planet Asia feat. Kurupt" INDEX 01 00:00:00FILE "12 - John Powell - Cool Chili.wav" WAVE TRACK 12 AUDIO TITLE "Cool Chili" PERFORMER "John Powell" INDEX 01 00:00:00FILE "13 - Sonny & Cher - A Cowboy's Work is Never Done.wav" WAVE TRACK 13 AUDIO TITLE "A Cowboy's Work is Never Done" PERFORMER "Sonny & Cher" INDEX 01 00:00:00FILE "14 - The Rock - You Ain't Woman Enough.wav" WAVE TRACK 14 AUDIO TITLE "You Ain't Woman Enough" PERFORMER "The Rock" INDEX 01 00:00:00


Трекер:  [ 09-Июл-2011 00:34 ]

  

Скачать .torrent

Размер .torrent файла 15 KB


Размер: 343 MB
Хэш (hash) релиза: 32be6ccbf31182125a40a8be64fa9d6a7393b6f9

Еще никто не оставлял запись к записи скачать торрент Будь круче Be Cool - 2005, FLAC . Будь первым!

!Обратная связь