Скачать через торрент музыку Killing Me Softly | Убей меня нежно бесплатно без регистрации torrent

Если у вас наблюдаются проблемы со скриншотами, переходом по ссылками, скачиванием торрентов - проблемы в блокировщике рекламы AdBlock. #хорошегоДня!


Статистика раздачи
Размер:  232 MB   |    Зарегистрирован:  6 лет 2 месяца   |    .torrent скачан:  48 раз   |   
Раздают:  1  
   
Загрузка...
 
Автор Сообщение

Galfimbul

avatar Galfimbul


Killing Me Softly | Убей меня нежно
Жанр: Score
Год выпуска диска: 2002
Производитель диска: USA
Аудио кодек: FLAC
Тип рипа: tracks+.cue
Битрейт аудио: lossless
Продолжительность: 52:59
01. Opening Credits
02. Alice And Jake
03. Traffic Light
04. Alice, Are You With Us
05. First Fling (Version 1)
06. First Fling (Version 2)
07. Don't Turn Away
08. Alice Returns
09. Alice Leaves Jake
10. Waiting For Adam
11. Climbing The Wall
12. Mugging
13. Wedding
14. Honeymoon Trek
15. Silk Scarf
16. The Necklace
17. Joanna Sends A Fax
18. Alice Goes To Michelle
19. Michelle's Story
20. Adele's Letters
21. Bloody Scarf
22. Adam Called
23. Adam Shock
24. Two Way Mirror
25. Broken Anchor
26. Deborah Dies Part 1
27. Deborah Dies Part 2
28. Deborah Dies Part 3
29. Finale

Exact Audio Copy V0.99 prebeta 5 from 4. May 2009

EAC extraction logfile from 11. November 2009, 18:31

Patrick Doyle / Killing Me Softly

Used drive : Optiarc DVD RW AD-7170A Adapter: 0 ID: 0

Read mode : Secure
Utilize accurate stream : Yes
Defeat audio cache : Yes
Make use of C2 pointers : No

Read offset correction : 48
Overread into Lead-In and Lead-Out : No
Fill up missing offset samples with silence : Yes
Delete leading and trailing silent blocks : No
Null samples used in CRC calculations : Yes
Used interface : Native Win32 interface for Win NT & 2000
Gap handling : Appended to previous track

Used output format : User Defined Encoder
Selected bitrate : 320 kBit/s
Quality : High
Add ID3 tag : No
Command line compressor : C:\Program Files\Exact Audio Copy\Flac\flac.exe
Additional command line options : -8 -V -T "ARTIST=%a" -T "TITLE=%t" -T "ALBUM=%g" -T "DATE=%y" -T "TRACKNUMBER=%n" -T "GENRE=%m" -T "COMMENT=EAC FLAC -8" %s

TOC of the extracted CD

Track | Start | Length | Start sector | End sector
---------------------------------------------------------
1 | 0:00.00 | 1:04.04 | 0 | 4803
2 | 1:04.04 | 1:37.00 | 4804 | 12078
3 | 2:41.04 | 1:01.42 | 12079 | 16695
4 | 3:42.46 | 0:31.31 | 16696 | 19051
5 | 4:14.02 | 1:49.02 | 19052 | 27228
6 | 6:03.04 | 1:48.67 | 27229 | 35395
7 | 7:51.71 | 0:59.70 | 35396 | 39890
8 | 8:51.66 | 1:50.02 | 39891 | 48142
9 | 10:41.68 | 1:10.08 | 48143 | 53400
10 | 11:52.01 | 1:59.04 | 53401 | 62329
11 | 13:51.05 | 1:48.48 | 62330 | 70477
12 | 15:39.53 | 2:13.06 | 70478 | 80458
13 | 17:52.59 | 2:13.04 | 80459 | 90437
14 | 20:05.63 | 1:45.62 | 90438 | 98374
15 | 21:51.50 | 1:08.56 | 98375 | 103530
16 | 23:00.31 | 1:01.46 | 103531 | 108151
17 | 24:02.02 | 1:11.07 | 108152 | 113483
18 | 25:13.09 | 3:04.29 | 113484 | 127312
19 | 28:17.38 | 2:34.68 | 127313 | 138930
20 | 30:52.31 | 1:35.20 | 138931 | 146075
21 | 32:27.51 | 5:19.69 | 146076 | 170069
22 | 37:47.45 | 1:42.04 | 170070 | 177723
23 | 39:29.49 | 0:54.33 | 177724 | 181806
24 | 40:24.07 | 4:59.51 | 181807 | 204282
25 | 45:23.58 | 0:42.72 | 204283 | 207504
26 | 46:06.55 | 1:39.13 | 207505 | 214942
27 | 47:45.68 | 1:44.26 | 214943 | 222768
28 | 49:30.19 | 2:13.41 | 222769 | 232784
29 | 51:43.60 | 1:15.73 | 232785 | 238482

Track 1

Filename E:\DownLoad\SoundTrack_Killing Me Softly\ 01. Patrick Doyle – Opening Credits.wav

Pre-gap length 0:00:02.00

Peak level 100.0 %
Track quality 99.8 %
Test CRC 0504106D
Copy CRC 0504106D
Copy OK

Track 2

Filename E:\DownLoad\SoundTrack_Killing Me Softly\ 02. Patrick Doyle – Alice And Jake.wav

Peak level 44.0 %
Track quality 100.0 %
Test CRC 7E864F27
Copy CRC 7E864F27
Copy OK

Track 3

Filename E:\DownLoad\SoundTrack_Killing Me Softly\ 03. Patrick Doyle – Traffic Light.wav

Peak level 46.4 %
Track quality 100.0 %
Test CRC 1FDB0D21
Copy CRC 1FDB0D21
Copy OK

Track 4

Filename E:\DownLoad\SoundTrack_Killing Me Softly\ 04. Patrick Doyle – Alice, Are You With Us.wav

Peak level 40.5 %
Track quality 100.0 %
Test CRC 0CD9345B
Copy CRC 0CD9345B
Copy OK

Track 5

Filename E:\DownLoad\SoundTrack_Killing Me Softly\ 05. Patrick Doyle – First Fling (Version 1).wav

Peak level 100.0 %
Track quality 100.0 %
Test CRC C2793154
Copy CRC C2793154
Copy OK

Track 6

Filename E:\DownLoad\SoundTrack_Killing Me Softly\ 06. Patrick Doyle – First Fling (Version 2).wav

Peak level 100.0 %
Track quality 99.9 %
Test CRC CA60576D
Copy CRC CA60576D
Copy OK

Track 7

Filename E:\DownLoad\SoundTrack_Killing Me Softly\ 07. Patrick Doyle – Don't Turn Away.wav

Peak level 54.7 %
Track quality 99.8 %
Test CRC 38D5CF94
Copy CRC 38D5CF94
Copy OK

Track 8

Filename E:\DownLoad\SoundTrack_Killing Me Softly\ 08. Patrick Doyle – Alice Returns.wav

Peak level 56.7 %
Track quality 100.0 %
Test CRC D13D8DF8
Copy CRC D13D8DF8
Copy OK

Track 9

Filename E:\DownLoad\SoundTrack_Killing Me Softly\ 09. Patrick Doyle – Alice Leaves Jake.wav

Peak level 92.1 %
Track quality 100.0 %
Test CRC 16982F36
Copy CRC 16982F36
Copy OK

Track 10

Filename E:\DownLoad\SoundTrack_Killing Me Softly\ 10. Patrick Doyle – Waiting For Adam.wav

Peak level 72.5 %
Track quality 100.0 %
Test CRC 2F5367B3
Copy CRC 2F5367B3
Copy OK

Track 11

Filename E:\DownLoad\SoundTrack_Killing Me Softly\ 11. Patrick Doyle – Climbing The Wall.wav

Peak level 58.3 %
Track quality 100.0 %
Test CRC A69308D2
Copy CRC A69308D2
Copy OK

Track 12

Filename E:\DownLoad\SoundTrack_Killing Me Softly\ 12. Patrick Doyle – Mugging.wav

Peak level 90.1 %
Track quality 100.0 %
Test CRC DDDBE55A
Copy CRC DDDBE55A
Copy OK

Track 13

Filename E:\DownLoad\SoundTrack_Killing Me Softly\ 13. Patrick Doyle – Wedding.wav

Peak level 80.7 %
Track quality 100.0 %
Test CRC 0E72E182
Copy CRC 0E72E182
Copy OK

Track 14

Filename E:\DownLoad\SoundTrack_Killing Me Softly\ 14. Patrick Doyle – Honeymoon Trek.wav

Peak level 30.0 %
Track quality 100.0 %
Test CRC 1227D97D
Copy CRC 1227D97D
Copy OK

Track 15

Filename E:\DownLoad\SoundTrack_Killing Me Softly\ 15. Patrick Doyle – Silk Scarf.wav

Peak level 28.7 %
Track quality 99.8 %
Test CRC 1FA1ADC3
Copy CRC 1FA1ADC3
Copy OK

Track 16

Filename E:\DownLoad\SoundTrack_Killing Me Softly\ 16. Patrick Doyle – The Necklace.wav

Peak level 65.0 %
Track quality 100.0 %
Test CRC 4CB76813
Copy CRC 4CB76813
Copy OK

Track 17

Filename E:\DownLoad\SoundTrack_Killing Me Softly\ 17. Patrick Doyle – Joanna Sends A Fax.wav

Peak level 56.6 %
Track quality 100.0 %
Test CRC 056C33C1
Copy CRC 056C33C1
Copy OK

Track 18

Filename E:\DownLoad\SoundTrack_Killing Me Softly\ 18. Patrick Doyle – Alice Goes To Michelle.wav

Peak level 100.0 %
Track quality 99.9 %
Test CRC 79517275
Copy CRC 79517275
Copy OK

Track 19

Filename E:\DownLoad\SoundTrack_Killing Me Softly\ 19. Patrick Doyle – Michelle's Story.wav

Peak level 88.5 %
Track quality 100.0 %
Test CRC BA22B870
Copy CRC BA22B870
Copy OK

Track 20

Filename E:\DownLoad\SoundTrack_Killing Me Softly\ 20. Patrick Doyle – Adele's Letters.wav

Peak level 85.0 %
Track quality 100.0 %
Test CRC 841B398E
Copy CRC 841B398E
Copy OK

Track 21

Filename E:\DownLoad\SoundTrack_Killing Me Softly\ 21. Patrick Doyle – Bloody Scarf.wav

Peak level 96.5 %
Track quality 100.0 %
Test CRC 396613FC
Copy CRC 396613FC
Copy OK

Track 22

Filename E:\DownLoad\SoundTrack_Killing Me Softly\ 22. Patrick Doyle – Adam Called.wav

Peak level 98.0 %
Track quality 100.0 %
Test CRC 31F13642
Copy CRC 31F13642
Copy OK

Track 23

Filename E:\DownLoad\SoundTrack_Killing Me Softly\ 23. Patrick Doyle – Adam Shock.wav

Peak level 92.9 %
Track quality 99.8 %
Test CRC AD1FD19D
Copy CRC AD1FD19D
Copy OK

Track 24

Filename E:\DownLoad\SoundTrack_Killing Me Softly\ 24. Patrick Doyle – Two Way Mirror.wav

Peak level 100.0 %
Track quality 100.0 %
Test CRC C5155570
Copy CRC C5155570
Copy OK

Track 25

Filename E:\DownLoad\SoundTrack_Killing Me Softly\ 25. Patrick Doyle – Broken Anchor.wav

Peak level 91.2 %
Track quality 100.0 %
Test CRC 3AF26862
Copy CRC 3AF26862
Copy OK

Track 26

Filename E:\DownLoad\SoundTrack_Killing Me Softly\ 26. Patrick Doyle – Deborah Dies Part 1.wav

Peak level 71.4 %
Track quality 100.0 %
Test CRC 59E2719A
Copy CRC 59E2719A
Copy OK

Track 27

Filename E:\DownLoad\SoundTrack_Killing Me Softly\ 27. Patrick Doyle – Deborah Dies Part 2.wav

Peak level 53.2 %
Track quality 100.0 %
Test CRC D649404A
Copy CRC D649404A
Copy OK

Track 28

Filename E:\DownLoad\SoundTrack_Killing Me Softly\ 28. Patrick Doyle – Deborah Dies Part 3.wav

Peak level 40.6 %
Track quality 100.0 %
Test CRC E59B7A6B
Copy CRC E59B7A6B
Copy OK

Track 29

Filename E:\DownLoad\SoundTrack_Killing Me Softly\ 29. Patrick Doyle – Finale.wav

Peak level 40.7 %
Track quality 100.0 %
Test CRC DFBAA2C2
Copy CRC DFBAA2C2
Copy OK

No errors occurred

End of status report


Трекер:  [ 09-Июл-2011 00:34 ]

  

Скачать .torrent

Размер .torrent файла 21 KB


Размер: 232 MB
Хэш (hash) релиза: ed1258d95218000f056e2ceaa81ae5726ab5a138

Еще никто не оставлял запись к записи скачать торрент Killing Me Softly | Убей меня нежно . Будь первым!

!Обратная связь