Скачать через торрент музыку Thomas Newman - The Film Music of Thomas Newman - 2008, FLAC бесплатно без регистрации torrent

Если у вас наблюдаются проблемы со скриншотами, переходом по ссылками, скачиванием торрентов - проблемы в блокировщике рекламы AdBlock. #хорошегоДня!


Статистика раздачи
Размер:  270 MB   |    Зарегистрирован:  6 лет 2 месяца   |    .torrent скачан:  46 раз   |   
Раздают:  1  
   
Загрузка...
 
Автор Сообщение

Galfimbul

avatar Galfimbul


Thomas Newman - The Film Music of Thomas Newman

Жанр: Score
Год выпуска диска: 2008
Аудио кодек: FLAC
Тип рипа: tracks+.cue
Битрейт аудио: lossless
Продолжительность: 51:59
Трэклист:
1. The Good German: Unrecht Oder Recht
2. The Good German: Jedem das Seine
3. Road to Perdition: Main Theme
4. American Beauty: Plastic Bag Theme
5. American Beauty: Dead Already
6. The Horse Whisperer: End Title
7. The Green Mile
8. Lemony Snicket’s a Series of Unfortunate Events: The Letter That Never Came
9. Little Women
10. Cinderella Man
11. Finding Nemo: Finding Nemo / Nemo Egg
12. Meet Joe Black: Whisper of a Thrill
13. Six Feet Under: Theme
14. The Shawshank Redemption: End Titles
Exact Audio Copy V0.99 prebeta 4 from 23. January 2008

EAC extraction logfile from 20. September 2008, 17:54

The City of Prague Philharmonic Orchestra / The Film Music of Thomas Newman

Used drive : PLEXTOR CD-R PX-W5224A Adapter: 1 ID: 1

Read mode : Secure
Utilize accurate stream : Yes
Defeat audio cache : Yes
Make use of C2 pointers : No

Read offset correction : 30
Overread into Lead-In and Lead-Out : Yes
Fill up missing offset samples with silence : Yes
Delete leading and trailing silent blocks : No
Null samples used in CRC calculations : Yes
Used interface : Installed external ASPI interface
Gap handling : Appended to previous track

Used output format : Internal WAV Routines
Sample format : 44.100 Hz; 16 Bit; Stereo

TOC of the extracted CD

Track | Start | Length | Start sector | End sector
---------------------------------------------------------
1 | 0:00.00 | 2:31.43 | 0 | 11367
2 | 2:31.43 | 3:16.17 | 11368 | 26084
3 | 5:47.60 | 3:51.74 | 26085 | 43483
4 | 9:39.59 | 2:51.22 | 43484 | 56330
5 | 12:31.06 | 3:17.45 | 56331 | 71150
6 | 15:48.51 | 3:37.33 | 71151 | 87458
7 | 19:26.09 | 3:59.73 | 87459 | 105456
8 | 23:26.07 | 4:00.27 | 105457 | 123483
9 | 27:26.34 | 4:10.12 | 123484 | 142245
10 | 31:36.46 | 5:30.52 | 142246 | 167047
11 | 37:07.23 | 2:34.32 | 167048 | 178629
12 | 39:41.55 | 6:16.04 | 178630 | 206833
13 | 45:57.59 | 2:11.19 | 206834 | 216677
14 | 48:09.03 | 3:50.72 | 216678 | 233999

Track 1

Filename C:\DAE\The Film Music of Thomas Newman (SILCD1262)\01 THE GOOD GERMAN -

Unrecht oder Recht.wav

Pre-gap length 0:00:02.00

Peak level 90.5 %
Track quality 100.0 %
Test CRC 7322B5B9
Copy CRC 7322B5B9
Track not present in AccurateRip database
Copy OK

Track 2

Filename C:\DAE\The Film Music of Thomas Newman (SILCD1262)\02 THE GOOD GERMAN -

Jedem Das Seine.wav

Peak level 86.9 %
Track quality 99.9 %
Test CRC 7373B91C
Copy CRC 7373B91C
Track not present in AccurateRip database
Copy OK

Track 3

Filename C:\DAE\The Film Music of Thomas Newman (SILCD1262)\03 ROAD TO PERDITION -

Main Theme.wav

Peak level 87.6 %
Track quality 100.0 %
Test CRC 2BAAA3CC
Copy CRC 2BAAA3CC
Track not present in AccurateRip database
Copy OK

Track 4

Filename C:\DAE\The Film Music of Thomas Newman (SILCD1262)\04 AMERICAN BEAUTY -

Plastic Bag Theme.wav

Peak level 95.1 %
Track quality 100.0 %
Test CRC BA1911E0
Copy CRC BA1911E0
Track not present in AccurateRip database
Copy OK

Track 5

Filename C:\DAE\The Film Music of Thomas Newman (SILCD1262)\05 AMERICAN BEAUTY -

Dead Already.wav

Peak level 96.8 %
Track quality 100.0 %
Test CRC 169DE8BB
Copy CRC 169DE8BB
Track not present in AccurateRip database
Copy OK

Track 6

Filename C:\DAE\The Film Music of Thomas Newman (SILCD1262)\06 THE HORSE WHISPERER

- End Title.wav

Peak level 89.4 %
Track quality 100.0 %
Test CRC 31D8B39D
Copy CRC 31D8B39D
Track not present in AccurateRip database
Copy OK

Track 7

Filename C:\DAE\The Film Music of Thomas Newman (SILCD1262)\07 THE GREEN MILE - The

Green Mile.wav

Peak level 100.0 %
Track quality 100.0 %
Test CRC C50CC1E6
Copy CRC C50CC1E6
Track not present in AccurateRip database
Copy OK

Track 8

Filename C:\DAE\The Film Music of Thomas Newman (SILCD1262)\08 LEMONY SNICKET'S A

SERIES OF UNFORTUNATE EVENTS - The Letter That Never Came.wav

Peak level 91.3 %
Track quality 100.0 %
Test CRC 792DE366
Copy CRC 792DE366
Track not present in AccurateRip database
Copy OK

Track 9

Filename C:\DAE\The Film Music of Thomas Newman (SILCD1262)\09 LITTLE WOMEN - Little

Women.wav

Peak level 88.5 %
Track quality 100.0 %
Test CRC 4CE2402A
Copy CRC 4CE2402A
Track not present in AccurateRip database
Copy OK

Track 10

Filename C:\DAE\The Film Music of Thomas Newman (SILCD1262)\10 CINDERELLA MAN -

Cinderella Man.wav

Peak level 94.4 %
Track quality 100.0 %
Test CRC 803F0AB2
Copy CRC 803F0AB2
Track not present in AccurateRip database
Copy OK

Track 11

Filename C:\DAE\The Film Music of Thomas Newman (SILCD1262)\11 FINDING NEMO - Finding

Nemo , Nemo Egg.wav

Peak level 96.1 %
Track quality 100.0 %
Test CRC BF75A0FE
Copy CRC BF75A0FE
Track not present in AccurateRip database
Copy OK

Track 12

Filename C:\DAE\The Film Music of Thomas Newman (SILCD1262)\12 MEET JOE BLACK -

Whisper Of A Thrill.wav

Peak level 97.2 %
Track quality 100.0 %
Test CRC 68C803A6
Copy CRC 68C803A6
Track not present in AccurateRip database
Copy OK

Track 13

Filename C:\DAE\The Film Music of Thomas Newman (SILCD1262)\13 SIX FEET UNDER -

Theme.wav

Peak level 76.3 %
Track quality 100.0 %
Test CRC 9E5C636A
Copy CRC 9E5C636A
Track not present in AccurateRip database
Copy OK

Track 14

Filename C:\DAE\The Film Music of Thomas Newman (SILCD1262)\14 THE SHAWSHANK

REDEMPTION - End Titles.wav

Peak level 93.9 %
Track quality 100.0 %
Test CRC B6709365
Copy CRC B6709365
Track not present in AccurateRip database
Copy OK

None of the tracks are present in the AccurateRip database

No errors occurred

End of status report


Трекер:  [ 09-Июл-2011 00:35 ]

  

Скачать .torrent

Размер .torrent файла 13 KB


Размер: 270 MB
Хэш (hash) релиза: 7440b84c914d5f0fa3b26274022e89c80952a4ec

Еще никто не оставлял запись к записи скачать торрент Thomas Newman - The Film Music of Thomas Newman - 2008, FLAC . Будь первым!

!Обратная связь