Скачать через торрент музыку Training Day Тренировочный день - 2001, FLAC бесплатно без регистрации torrent

Если у вас наблюдаются проблемы со скриншотами, переходом по ссылками, скачиванием торрентов - проблемы в блокировщике рекламы AdBlock. #хорошегоДня!


Статистика раздачи
Размер:  428 MB   |    Зарегистрирован:  6 лет 2 месяца   |    .torrent скачан:  37 раз   |   
Раздают:  1  
   
Загрузка...
 
Автор Сообщение

Galfimbul

avatar Galfimbul


Training Day / Тренировочный день


Жанр: Soundtrack, Hip-Hop
Год выпуска диска: 2001
Производитель диска: USA
Аудио кодек: FLAC
Тип рипа: tracks+.cue
Битрейт аудио: lossless
Продолжительность: 01:05:33



Треклист:

01. Keep Your Eyes Open (0:07)
Performed by Film Dialogue

02. W.O.L.V.E.S. (3:57)
Performed by Krumbsnatcha

03. Bounce, Rock, Golden State (4:05)
Performed by Golden State featuring Xzibit

04. Put It On Me (5:05)
Performed by Dr. Dre & DJ Quik

05. #1 (4:24)
Performed by Nelly

06. Fuck You (3:55)
Performed by Pharoahe Monch

07. Watch The Police (2:50)
Performed by C-Murder & Trick Daddy

08. Dirty Ryders (4:21)
Performed by The Lox

09. Crooked Cop (3:57)
Performed by Napalm

10. American Dream (5:21)
Performed by P. Diddy & David Bowie

11. Greed (3:24)
Performed by Cypress Hill

12. Guns N' Roses (3:39)
Performed by The Clipse

13. Tha Squeeze (3:29)
Performed by Gang Starr

14. Let Us Go (4:39)
Performed by King Jacob & Professo

15. Training Day in My Hood (4:21)
Performed by Roscoe

16. Protect Your Head (4:18)
Performed by Soldier B

17. Film Score (3:41)
Performed by Wolf Or Sheep



Источник: Waffles.fm
 
Exact Audio Copy V0.99 prebeta 3 from 28. July 2007

EAC extraction logfile from 12. July 2008, 16:01

Various / Training Day

Used drive : HL-DT-STDVD+RW GCA-4040N Adapter: 1 ID: 0

Read mode : SecureUtilize accurate stream : YesDefeat audio cache : YesMake use of C2 pointers : No

Read offset correction : 48Overread into Lead-In and Lead-Out : NoFill up missing offset samples with silence : YesDelete leading and trailing silent blocks : NoNull samples used in CRC calculations : YesUsed interface : Native Win32 interface for Win NT & 2000Gap handling : Appended to previous track

Used output format : User Defined EncoderSelected bitrate : 192 kBit/sQuality : HighAdd ID3 tag : NoCommand line compressor : C:\Program Files\Exact Audio Copy\Flac\flac.exeAdditional command line options : -V -8 -T "artist=%a" -T "title=%t" -T "album=%g" -T "date=%y" -T "tracknumber=%n" -T "genre=%m" %s

TOC of the extracted CD

Track | Start | Length | Start sector | End sector --------------------------------------------------------- 1 | 0:00.00 | 0:06.60 | 0 | 509 2 | 0:06.60 | 3:57.37 | 510 | 18321 3 | 4:04.22 | 4:05.10 | 18322 | 36706 4 | 8:09.32 | 5:04.55 | 36707 | 59561 5 | 13:14.12 | 4:23.40 | 59562 | 79326 6 | 17:37.52 | 3:54.65 | 79327 | 96941 7 | 21:32.42 | 2:49.68 | 96942 | 109684 8 | 24:22.35 | 4:20.45 | 109685 | 129229 9 | 28:43.05 | 3:57.02 | 129230 | 147006 10 | 32:40.07 | 5:21.33 | 147007 | 171114 11 | 38:01.40 | 3:24.17 | 171115 | 186431 12 | 41:25.57 | 3:38.40 | 186432 | 202821 13 | 45:04.22 | 3:28.50 | 202822 | 218471 14 | 48:32.72 | 4:38.68 | 218472 | 239389 15 | 53:11.65 | 4:21.35 | 239390 | 258999 16 | 57:33.25 | 4:18.20 | 259000 | 278369 17 | 61:51.45 | 3:41.35 | 278370 | 294979

Track 1

Filename C:\UTorrent\Training Day - 2001\01 - Film Dialogue - Keep Your Eyes Open.wav

Pre-gap length 0:00:02.00

Peak level 62.3 % Track quality 100.0 % Test CRC 32D90E65 Copy CRC 32D90E65 Accurately ripped (confidence 3) [3357F01A] Copy OK

Track 2

Filename C:\UTorrent\Training Day - 2001\02 - Krumbsnatcha - W.O.L.V.E.S..wav

Peak level 98.8 % Track quality 100.0 % Test CRC 86B8D0A7 Copy CRC 86B8D0A7 Accurately ripped (confidence 3) [94B7077B] Copy OK

Track 3

Filename C:\UTorrent\Training Day - 2001\03 - Golden State - Bounce, Rock, Golden State.wav

Peak level 98.8 % Track quality 100.0 % Test CRC 095FE46F Copy CRC 095FE46F Accurately ripped (confidence 3) [DDB2130B] Copy OK

Track 4

Filename C:\UTorrent\Training Day - 2001\04 - Dr. Dre & DJ Quik - Put It On Me.wav

Peak level 94.4 % Track quality 100.0 % Test CRC 43EC0515 Copy CRC 43EC0515 Accurately ripped (confidence 3) [30441157] Copy OK

Track 5

Filename C:\UTorrent\Training Day - 2001\05 - Nelly - #1.wav

Peak level 98.8 % Track quality 100.0 % Test CRC 7C683B54 Copy CRC 7C683B54 Accurately ripped (confidence 5) [F386DDF2] Copy OK

Track 6

Filename C:\UTorrent\Training Day - 2001\06 - Pharoahe Monch - Fuck You.wav

Peak level 98.8 % Track quality 100.0 % Test CRC DCF425E2 Copy CRC DCF425E2 Accurately ripped (confidence 3) [BBBD4609] Copy OK

Track 7

Filename C:\UTorrent\Training Day - 2001\07 - C-Murder & Trick Daddy - Watch The Police.wav

Peak level 98.8 % Track quality 100.0 % Test CRC CF5B9FB0 Copy CRC CF5B9FB0 Accurately ripped (confidence 3) [2742793B] Copy OK

Track 8

Filename C:\UTorrent\Training Day - 2001\08 - The Lox - Dirty Ryders.wav

Peak level 98.8 % Track quality 100.0 % Test CRC B09CE4DC Copy CRC B09CE4DC Accurately ripped (confidence 3) [B487D866] Copy OK

Track 9

Filename C:\UTorrent\Training Day - 2001\09 - Napalm - Crooked Cop.wav

Peak level 98.8 % Track quality 100.0 % Test CRC 81814A3A Copy CRC 81814A3A Accurately ripped (confidence 3) [813A910A] Copy OK

Track 10

Filename C:\UTorrent\Training Day - 2001\10 - P. Diddy & David Bowie - American Dream.wav

Peak level 98.8 % Track quality 99.9 % Test CRC F7848F9D Copy CRC F7848F9D Accurately ripped (confidence 3) [52DDD45C] Copy OK

Track 11

Filename C:\UTorrent\Training Day - 2001\11 - Cypress Hill - Greed.wav

Peak level 98.8 % Track quality 99.9 % Test CRC AF59EFD0 Copy CRC AF59EFD0 Accurately ripped (confidence 3) [310D26BC] Copy OK

Track 12

Filename C:\UTorrent\Training Day - 2001\12 - The Clipse - Guns N' Roses.wav

Pre-gap length 0:00:00.30

Peak level 98.8 % Track quality 100.0 % Test CRC BB382A1A Copy CRC BB382A1A Accurately ripped (confidence 3) [57B20890] Copy OK

Track 13

Filename C:\UTorrent\Training Day - 2001\13 - Gang Starr - Tha Squeeze.wav

Pre-gap length 0:00:01.33

Peak level 98.8 % Track quality 100.0 % Test CRC 6128B762 Copy CRC 6128B762 Accurately ripped (confidence 3) [A4A58896] Copy OK

Track 14

Filename C:\UTorrent\Training Day - 2001\14 - King Jacob & Professo - Let Us Go.wav

Pre-gap length 0:00:00.66

Peak level 98.8 % Track quality 100.0 % Test CRC BDDEC870 Copy CRC BDDEC870 Accurately ripped (confidence 3) [A85F39D1] Copy OK

Track 15

Filename C:\UTorrent\Training Day - 2001\15 - Roscoe - Training Day in My Hood.wav

Pre-gap length 0:00:00.01

Peak level 98.8 % Track quality 100.0 % Test CRC C52F504E Copy CRC C52F504E Accurately ripped (confidence 3) [E52F2192] Copy OK

Track 16

Filename C:\UTorrent\Training Day - 2001\16 - Soldier B - Protect Your Head.wav

Peak level 98.8 % Track quality 100.0 % Test CRC E2D5B417 Copy CRC E2D5B417 Accurately ripped (confidence 3) [8496BD6F] Copy OK

Track 17

Filename C:\UTorrent\Training Day - 2001\17 - Wolf Or Sheep - Film Score.wav

Peak level 98.8 % Track quality 100.0 % Test CRC 36C51058 Copy CRC 36C51058 Accurately ripped (confidence 3) [F3A4BC67] Copy OK

All tracks accurately ripped

No errors occurred

End of status report
 
[Verification date: 05.09.2009 17:36:31][Disc ID: 00269281-01f3d64c-fb0f5d11]Track [ CRC ] Status 01 [3357f01a] (06/06) Accurately ripped as in pressing(s) #1 02 [94b7077b] (06/06) Accurately ripped as in pressing(s) #1 03 [ddb2130b] (06/06) Accurately ripped as in pressing(s) #1 04 [30441157] (06/06) Accurately ripped as in pressing(s) #1 05 [f386ddf2] (07/07) Accurately ripped as in pressing(s) #1 06 [bbbd4609] (06/06) Accurately ripped as in pressing(s) #1 07 [2742793b] (06/06) Accurately ripped as in pressing(s) #1 08 [b487d866] (06/06) Accurately ripped as in pressing(s) #1 09 [813a910a] (06/06) Accurately ripped as in pressing(s) #1 10 [52ddd45c] (06/06) Accurately ripped as in pressing(s) #1 11 [310d26bc] (06/06) Accurately ripped as in pressing(s) #1 12 [57b20890] (06/06) Accurately ripped as in pressing(s) #1 13 [a4a58896] (06/06) Accurately ripped as in pressing(s) #1 14 [a85f39d1] (06/06) Accurately ripped as in pressing(s) #1 15 [e52f2192] (06/06) Accurately ripped as in pressing(s) #1 16 [8496bd6f] (05/05) Accurately ripped as in pressing(s) #1 17 [f3a4bc67] (05/05) Accurately ripped as in pressing(s) #1

Track [ CRC32 ] [W/O NULL] [ LOG ] -- [628DF449] [35C6649B] 01 [32D90E65] [5D1E41B8] CRC32 02 [86B8D0A7] [9EFE08FF] CRC32 03 [095FE46F] [2554A84E] CRC32 04 [43EC0515] [70C4819B] CRC32 05 [7C683B54] [4C0DAE7C] CRC32 06 [DCF425E2] [5B69A218] CRC32 07 [CF5B9FB0] [EBF27BF8] CRC32 08 [B09CE4DC] [53B67B10] CRC32 09 [81814A3A] [3CCB6C9A] CRC32 10 [F7848F9D] [2AE76A5B] CRC32 11 [AF59EFD0] [EED6D1AB] CRC32 12 [BB382A1A] [0F218A33] CRC32 13 [6128B762] [E69C3CB1] CRC32 14 [BDDEC870] [A2A409FA] CRC32 15 [C52F504E] [F4F5D0B1] CRC32 16 [E2D5B417] [194D2B5E] CRC32 17 [36C51058] [FD247CFC] CRC32
 
AUDIOCHECKER v2.0 beta (build 457) - by Dester - opdester@freemail.hu~~~~~~~~~~~~~~~~~~~~~~~~~~~~~~~~~~-=== DO NOT EDIT THIS FILE! ===-

Path: ...\Training Day - 2001 - OST [FLAC (tracks+.cue)]

01 -=- 01 - Film Dialogue - Keep Your Eyes Open.flac -=- CDDA (100%)02 -=- 02 - Krumbsnatcha - W.O.L.V.E.S..flac -=- CDDA (100%)03 -=- 03 - Golden State - Bounce, Rock, Golden State.flac -=- CDDA (100%)04 -=- 04 - Dr. Dre & DJ Quik - Put It On Me.flac -=- CDDA (100%)05 -=- 05 - Nelly - #1.flac -=- CDDA (100%)06 -=- 06 - Pharoahe Monch - Fuck You.flac -=- CDDA (100%)07 -=- 07 - C-Murder & Trick Daddy - Watch The Police.flac -=- CDDA (100%)08 -=- 08 - The Lox - Dirty Ryders.flac -=- CDDA (100%)09 -=- 09 - Napalm - Crooked Cop.flac -=- CDDA (100%)10 -=- 10 - P. Diddy & David Bowie - American Dream.flac -=- CDDA (100%)11 -=- 11 - Cypress Hill - Greed.flac -=- CDDA (100%)12 -=- 12 - The Clipse - Guns N' Roses.flac -=- CDDA (100%)13 -=- 13 - Gang Starr - Tha Squeeze.flac -=- CDDA (99%)14 -=- 14 - King Jacob & Professo - Let Us Go.flac -=- CDDA (100%)15 -=- 15 - Roscoe - Training Day in My Hood.flac -=- CDDA (100%)16 -=- 16 - Soldier B - Protect Your Head.flac -=- CDDA (100%)17 -=- 17 - Wolf Or Sheep - Film Score.flac -=- CDDA (100%)

Summary 99,94% CDDA

58986964

Enjoy!


Трекер:  [ 09-Июл-2011 00:38 ]

  

Скачать .torrent

Размер .torrent файла 19 KB


Размер: 428 MB
Хэш (hash) релиза: 18123944a501c5acf510d2b3b1ba3766c2fa58a3

Еще никто не оставлял запись к записи скачать торрент Training Day Тренировочный день - 2001, FLAC . Будь первым!

!Обратная связь