Скачать через торрент музыку Manfred Hüber & Siegfried Schwab: Vampyros Lesbos Sexadelic Dance Party бесплатно без регистрации torrent

Если у вас наблюдаются проблемы со скриншотами, переходом по ссылками, скачиванием торрентов - проблемы в блокировщике рекламы AdBlock. #хорошегоДня!


Статистика раздачи
Размер:  886 MB   |    Зарегистрирован:  6 лет 2 месяца   |    .torrent скачан:  50 раз   |   
Раздают:  1  
   
Загрузка...
 
Автор Сообщение

Galfimbul

avatar Galfimbul


Manfred Hüber & Siegfried Schwab: Vampyros Lesbos / Sexadelic Dance Party

Жанр: Score / Sexadelic / Lounge
Год выпуска диска: 2006
Производитель диска: Deutschland
Аудио кодек: FLAC
Тип рипа: image+.cue
Битрейт аудио: lossless
Продолжительность: 59:25
Трэклист:
1. Droge CX 9
2. The lions and the cucumber
3. There’s no satisfaction
4. Dedicated to love
5. People’s playground Version A
6. We don’t care
7. People’s playground Version B *VINYL BONUS TRACK/FIRST TIME
8. The Ballad of a fair singer
9. Necronomania
10. Kamasutra
11. The Message
12. Shindai Lovers
13. The six wisdoms of Aspasia
14. Countdown to nowhere *VINYL BONUS TRACK/FIRST TIME
15. Konkubination * VINYL/CD BONUS TRACK
16. Ghost or good and bad onions * VINYL/CD BONUS TRACK
17. Psycho Contact- Part One * VINYL/CD BONUS TRACK

Доп. информация: http://www.moviegrooves.com/shop/vampyroslesbos.htm
 
Exact Audio Copy V0.99 prebeta 4 from 23. January 2008

EAC extraction logfile from 8. October 2009, 5:03

Manfred Hubler & Siegfried Schwab / Vampyros Lesbos: Sexadelic Dance Party

Used drive : MATSHITADVD-RAM UJ-841S Adapter: 1 ID: 0

Read mode : SecureUtilize accurate stream : YesDefeat audio cache : YesMake use of C2 pointers : No

Read offset correction : 102Overread into Lead-In and Lead-Out : NoFill up missing offset samples with silence : YesDelete leading and trailing silent blocks : NoNull samples used in CRC calculations : YesUsed interface : Native Win32 interface for Win NT & 2000

Used output format : User Defined EncoderSelected bitrate : 320 kBit/sQuality : HighAdd ID3 tag : NoCommand line compressor : C:\Program Files\FLAC\flac.exeAdditional command line options : -8 -V -T "ARTIST=%a" -T "TITLE=%t" -T "ALBUM=%g" -T "DATE=%y" -T "TRACKNUMBER=%n" -T "GENRE=%m" -T "COMMENT=EAC FLAC -8" %s

TOC of the extracted CD

Track | Start | Length | Start sector | End sector --------------------------------------------------------- 1 | 0:00.00 | 5:13.74 | 0 | 23548 2 | 5:13.74 | 5:12.23 | 23549 | 46971 3 | 10:26.22 | 3:12.56 | 46972 | 61427 4 | 13:39.03 | 2:31.66 | 61428 | 72818 5 | 16:10.69 | 0:50.11 | 72819 | 76579 6 | 17:01.05 | 5:20.53 | 76580 | 100632 7 | 22:21.58 | 1:17.57 | 100633 | 106464 8 | 23:39.40 | 4:38.07 | 106465 | 127321 9 | 28:17.47 | 2:12.31 | 127322 | 137252 10 | 30:30.03 | 4:04.72 | 137253 | 155624 11 | 34:35.00 | 3:26.01 | 155625 | 171075 12 | 38:01.01 | 4:24.03 | 171076 | 190878 13 | 42:25.04 | 4:22.70 | 190879 | 210598 14 | 46:47.74 | 2:30.01 | 210599 | 221849 15 | 49:18.00 | 4:03.00 | 221850 | 240074 16 | 53:21.00 | 4:31.01 | 240075 | 260400 17 | 57:52.01 | 1:33.31 | 260401 | 267406

Range status and errors

Selected range

Filename C:\Program Files\Music\Manfred Hubler & Siegfried Schwab - Vampyros Lesbos Sexadelic Dance Party.wav

Peak level 95.5 % Range quality 99.9 % Test CRC 7FF09782 Copy CRC 7FF09782 Copy OK

No errors occurred

AccurateRip summary

Track 1 accurately ripped (confidence 4) [698B02E1]Track 2 accurately ripped (confidence 4) [8D9DC016]Track 3 accurately ripped (confidence 4) [5CFE9F87]Track 4 accurately ripped (confidence 4) [A37478D0]Track 5 accurately ripped (confidence 4) [63D82702]Track 6 accurately ripped (confidence 4) [D3E01B62]Track 7 accurately ripped (confidence 4) [E5C59E7C]Track 8 accurately ripped (confidence 4) [D8588B60]Track 9 accurately ripped (confidence 4) [059B9797]Track 10 accurately ripped (confidence 4) [E508C776]Track 11 accurately ripped (confidence 4) [255CE0AC]Track 12 accurately ripped (confidence 4) [5617040B]Track 13 accurately ripped (confidence 4) [8BA9A1FE]Track 14 accurately ripped (confidence 4) [16920244]Track 15 accurately ripped (confidence 4) [A59EA277]Track 16 accurately ripped (confidence 4) [6F5B55B5]Track 17 accurately ripped (confidence 4) [4A2458AE]

All tracks accurately ripped

End of status report


Трекер:  [ 09-Июл-2011 00:39 ]

  

Скачать .torrent

Размер .torrent файла 18 KB


Размер: 886 MB
Хэш (hash) релиза: 51875eb27dc309cab532c46c6aab7b76423186b2

Еще никто не оставлял запись к записи скачать торрент Manfred Hüber & Siegfried Schwab: Vampyros Lesbos Sexadelic Dance Party . Будь первым!

!Обратная связь