Скачать через торрент музыку Jerry Goldsmith & Jonathan Sheffer - The Omen, Omen II: Damien, Omen III: The Final Conflict, Omen IV: The Awakening Омен, Омен II: Дэмиен, Омен III: Последняя битва, Омен IV: Пробуждение - 1991, 2001, APE бесплатно без регистрации torrent

Если у вас наблюдаются проблемы со скриншотами, переходом по ссылками, скачиванием торрентов - проблемы в блокировщике рекламы AdBlock. #хорошегоДня!


Статистика раздачи
Размер:  1.08 GB   |    Зарегистрирован:  6 лет 2 месяца   |    .torrent скачан:  51 раз   |   
Раздают:  1  
   
Загрузка...
 
Автор Сообщение

Galfimbul

avatar Galfimbul


Jerry Goldsmith & Jonathan Sheffer - Omen-I-II-III-IV / Омен-I-II-III-IV

Жанр: Score
Год выпуска диска: 1991, 2001
Производитель диска: Germany
Аудио кодек: APE
Тип рипа: image+.cue
Битрейт аудио: lossless
Продолжительность: 49.23; 68.10; 62.40; 38.35
Источник: оригинальные диски
01. Ave Satani (02:35.57)
02. On This Night (02:36.63) *
03. The New Ambassador (02:34.60)
04. Where is He? (00:56.57) *
05. I Was There (02:27.38) *
06. Broken Vows (02:12.07) *
07. Safari Park (03:24.38)
08. A Doctor, Please (01:44.35)
09. The Killer Storm (02:54.47)
10. The Fall (03:45.48)
11. Don't Let Him (02:49.35)
12. The Day He Died (02:14.47) *
13. The Dogs Attack (05:54.50)
14. A Sad Message (01:44.63)
15. Beheaded (01:49.05) *
16. The Bed (01:08.15)
17. 666 (00:44.65) *
18. The Demise of Mrs. Baylock (02:54.72)
19. The Altar (02:07.73)
20. The Piper Dreams (02:41.55) **

* World Premiere Release
** Performed by Carol Goldsmith
 
Exact Audio Copy V0.99 prebeta 5 from 4. May 2009

Отчёт EAC об извлечении, выполненном 26. февраля 2010, 16:04

Jerry Goldsmith / The Omen [The Deluxe Edition]

Дисковод: TSSTcorpCDDVDW SH-S202H Adapter: 3 ID: 0

Режим чтения : ДостоверностьИспользование точного потока : ДаОтключение кэша аудио : ДаИспользование указателей C2 : Нет

Коррекция смещения при чтении : 6Способность читать области Lead-in и Lead-out : НетЗаполнение пропущенных сэмплов тишиной : ДаУдаление блоков с тишиной в начале и конце : НетПри вычислениях CRC использовались нулевые сэмплы : ДаИнтерфейс : Встроенный Win32-интерфейс для Win NT/2000

Выходной формат : Внутренние WAV-операцииФормат сэмплов : 44.100 Гц; 16 бит; стерео

TOC извлечённого CD

Трек | Старт | Длительность | Начальный сектор | Конечный сектор --------------------------------------------------------------------- 1 | 0:00.00 | 2:35.57 | 0 | 11681 2 | 2:35.57 | 2:36.63 | 11682 | 23444 3 | 5:12.45 | 2:34.60 | 23445 | 35054 4 | 7:47.30 | 0:56.57 | 35055 | 39311 5 | 8:44.12 | 2:27.38 | 39312 | 50374 6 | 11:11.50 | 2:12.07 | 50375 | 60281 7 | 13:23.57 | 3:24.38 | 60282 | 75619 8 | 16:48.20 | 1:44.35 | 75620 | 83454 9 | 18:32.55 | 2:54.47 | 83455 | 96551 10 | 21:27.27 | 3:45.48 | 96552 | 113474 11 | 25:13.00 | 2:49.35 | 113475 | 126184 12 | 28:02.35 | 2:14.47 | 126185 | 136281 13 | 30:17.07 | 5:54.50 | 136282 | 162881 14 | 36:11.57 | 1:44.63 | 162882 | 170744 15 | 37:56.45 | 1:49.05 | 170745 | 178924 16 | 39:45.50 | 1:08.15 | 178925 | 184039 17 | 40:53.65 | 0:44.65 | 184040 | 187404 18 | 41:38.55 | 2:54.72 | 187405 | 200526 19 | 44:33.52 | 2:07.73 | 200527 | 210124 20 | 46:41.50 | 2:41.55 | 210125 | 222254

Характеристики диапазона извлечения и сообщения об ошибках

Выбранный диапазон

Имя файла C:\Omen. Quadrilogy\Omen I\Jerry Goldsmith - The Omen [The Deluxe Edition].wav

Пиковый уровень 99.9 % Качество диапазона 100.0 % CRC копии 9817A002 Копирование... OK

Ошибок не произошло

AccurateRip: сводка

Трек 1 точное извлечение (доверие 4) [1849C2DC]Трек 2 точное извлечение (доверие 4) [FB69558A]Трек 3 точное извлечение (доверие 4) [D86B2ADC]Трек 4 точное извлечение (доверие 4) [F30F390E]Трек 5 точное извлечение (доверие 4) [DE1526AE]Трек 6 точное извлечение (доверие 4) [BC890F0F]Трек 7 точное извлечение (доверие 4) [948482A5]Трек 8 точное извлечение (доверие 4) [6F9141BD]Трек 9 точное извлечение (доверие 4) [D244F285]Трек 10 точное извлечение (доверие 4) [18CAAEE4]Трек 11 точное извлечение (доверие 4) [CB4AABAA]Трек 12 точное извлечение (доверие 4) [5457C455]Трек 13 точное извлечение (доверие 4) [0E1173E0]Трек 14 точное извлечение (доверие 4) [2E3F6DA4]Трек 15 точное извлечение (доверие 4) [039F9CBC]Трек 16 точное извлечение (доверие 4) [EAC2A664]Трек 17 точное извлечение (доверие 4) [429BDF19]Трек 18 точное извлечение (доверие 4) [487E7BE3]Трек 19 точное извлечение (доверие 4) [BF2A998D]Трек 20 точное извлечение (доверие 3) [B13CDB36]

Все треки извлечены точно

Конец отчёта
The Album
01. Main Title (05:05.07)
02. Runaway Train (02:40.38)
03. Claws (03:16.17)
04. Thoughtful Night (03:08.28)
05. Broken Ice (02:20.55)
06. Fallen Temple (02:56.65)
07. I Love You, Mark (04:39.12)
08. Shafted (03:02.35)
09. The Knife (03:22.43)
10. End Title (All The Power) (03:30.12)
The Film Soundtrack
11. Main Title (02:06.00)
12. Face of The Antichrist (02:21.33)
13. Fallen Temple (01:35.17)
14. Aunt Marion's Visitor (00:38.38)
15. Another Thorn (01:18.52)
16. A Ravenous Killing (03:08.68)
17. Snowmobiles (01:14.10)
18. Broken Ice (02:23.10)
19. Number of The Beast (01:34.70)
20. Shafted (03:02.50)
21. The Daggers (01:58.37)
22. Thoughtful Night (02:38.60)
23. I Love You, Mark (04:13.38)
24. Runaway Train (01:12.32)
25. The Boy Has to Die (01:26.35)
26. All The Power and End Title (03:15.15)
 
Exact Audio Copy V0.99 prebeta 5 from 4. May 2009

Отчёт EAC об извлечении, выполненном 26. февраля 2010, 17:04

Jerry Goldsmith / Damien: Omen II [The Deluxe Edition]

Дисковод: TSSTcorpCDDVDW SH-S202H Adapter: 3 ID: 0

Режим чтения : ДостоверностьИспользование точного потока : ДаОтключение кэша аудио : ДаИспользование указателей C2 : Нет

Коррекция смещения при чтении : 6Способность читать области Lead-in и Lead-out : НетЗаполнение пропущенных сэмплов тишиной : ДаУдаление блоков с тишиной в начале и конце : НетПри вычислениях CRC использовались нулевые сэмплы : ДаИнтерфейс : Встроенный Win32-интерфейс для Win NT/2000

Выходной формат : Внутренние WAV-операцииФормат сэмплов : 44.100 Гц; 16 бит; стерео

TOC извлечённого CD

Трек | Старт | Длительность | Начальный сектор | Конечный сектор --------------------------------------------------------------------- 1 | 0:00.00 | 5:05.07 | 0 | 22881 2 | 5:05.07 | 2:40.38 | 22882 | 34919 3 | 7:45.45 | 3:16.17 | 34920 | 49636 4 | 11:01.62 | 3:08.28 | 49637 | 63764 5 | 14:10.15 | 2:20.55 | 63765 | 74319 6 | 16:30.70 | 2:56.65 | 74320 | 87584 7 | 19:27.60 | 4:39.12 | 87585 | 108521 8 | 24:06.72 | 3:02.35 | 108522 | 122206 9 | 27:09.32 | 3:22.43 | 122207 | 137399 10 | 30:32.00 | 3:30.12 | 137400 | 153161 11 | 34:02.12 | 2:06.00 | 153162 | 162611 12 | 36:08.12 | 2:21.33 | 162612 | 173219 13 | 38:29.45 | 1:35.17 | 173220 | 180361 14 | 40:04.62 | 0:38.38 | 180362 | 183249 15 | 40:43.25 | 1:18.52 | 183250 | 189151 16 | 42:02.02 | 3:08.68 | 189152 | 203319 17 | 45:10.70 | 1:14.10 | 203320 | 208879 18 | 46:25.05 | 2:23.10 | 208880 | 219614 19 | 48:48.15 | 1:34.70 | 219615 | 226734 20 | 50:23.10 | 3:02.50 | 226735 | 240434 21 | 53:25.60 | 1:58.37 | 240435 | 249321 22 | 55:24.22 | 2:38.60 | 249322 | 261231 23 | 58:03.07 | 4:13.38 | 261232 | 280244 24 | 62:16.45 | 1:12.32 | 280245 | 285676 25 | 63:29.02 | 1:26.35 | 285677 | 292161 26 | 64:55.37 | 3:15.15 | 292162 | 306801

Характеристики диапазона извлечения и сообщения об ошибках

Выбранный диапазон

Имя файла C:\Omen. Quadrilogy\Omen II\Jerry Goldsmith - Damien Omen II [The Deluxe Edition].wav

Пиковый уровень 98.8 % Качество диапазона 99.9 % CRC копии C5FFCFBC Копирование... OK

Ошибок не произошло

AccurateRip: сводка

Трек 1 точное извлечение (доверие 3) [F42DB616]Трек 2 точное извлечение (доверие 3) [6907D6CD]Трек 3 точное извлечение (доверие 3) [85810F2D]Трек 4 точное извлечение (доверие 3) [B5CFECF6]Трек 5 точное извлечение (доверие 3) [ADA34EBC]Трек 6 точное извлечение (доверие 3) [3AAC614E]Трек 7 точное извлечение (доверие 3) [F83909F6]Трек 8 точное извлечение (доверие 3) [957B9922]Трек 9 точное извлечение (доверие 3) [272AC09F]Трек 10 точное извлечение (доверие 3) [39B5B033]Трек 11 точное извлечение (доверие 3) [C40058EB]Трек 12 точное извлечение (доверие 3) [AD8B080D]Трек 13 точное извлечение (доверие 3) [FEE174B6]Трек 14 точное извлечение (доверие 3) [1FBCE8A1]Трек 15 точное извлечение (доверие 3) [A9718811]Трек 16 точное извлечение (доверие 3) [52CB24E0]Трек 17 точное извлечение (доверие 3) [E7C7FC6E]Трек 18 точное извлечение (доверие 3) [146ACD9D]Трек 19 точное извлечение (доверие 3) [229A8EA3]Трек 20 точное извлечение (доверие 3) [43F3676F]Трек 21 точное извлечение (доверие 3) [5AF59659]Трек 22 точное извлечение (доверие 3) [171C4C88]Трек 23 точное извлечение (доверие 3) [7B9C3670]Трек 24 точное извлечение (доверие 3) [95EE4FAB]Трек 25 точное извлечение (доверие 3) [F8C9A6C7]Трек 26 точное извлечение (доверие 3) [F23A6B70]

Все треки извлечены точно

Конец отчёта
01. Main Title (03:29.02)
02. The Ambassador (04:49.70)
03. Trial Run (02:15.33)
04. The Monastery (03:17.35)
05. A T.V. First (02:50.47)
06. The Statue (04:10.53) *
07. The Second Coming (03:24.62)
08. Electric Storm (05:22.05)
09. The Hunt (04:04.65)
10. The Blooding (03:39.40)
11. Lost Children (03:45.13)
12. 666 (03:03.02) *
13. Parted Hair (06:35.43)
14. The Iron (02:30.05)
15. The Final Conflict (09:21.55) *

* World Premiere Release
 
Exact Audio Copy V0.99 prebeta 5 from 4. May 2009

Отчёт EAC об извлечении, выполненном 26. февраля 2010, 17:29

Jerry Goldsmith / The Final Conflict [The Deluxe Edition]

Дисковод: TSSTcorpCDDVDW SH-S202H Adapter: 3 ID: 0

Режим чтения : ДостоверностьИспользование точного потока : ДаОтключение кэша аудио : ДаИспользование указателей C2 : Нет

Коррекция смещения при чтении : 6Способность читать области Lead-in и Lead-out : НетЗаполнение пропущенных сэмплов тишиной : ДаУдаление блоков с тишиной в начале и конце : НетПри вычислениях CRC использовались нулевые сэмплы : ДаИнтерфейс : Встроенный Win32-интерфейс для Win NT/2000

Выходной формат : Внутренние WAV-операцииФормат сэмплов : 44.100 Гц; 16 бит; стерео

TOC извлечённого CD

Трек | Старт | Длительность | Начальный сектор | Конечный сектор --------------------------------------------------------------------- 1 | 0:00.00 | 3:29.02 | 0 | 15676 2 | 3:29.02 | 4:49.70 | 15677 | 37421 3 | 8:18.72 | 2:15.33 | 37422 | 47579 4 | 10:34.30 | 3:17.35 | 47580 | 62389 5 | 13:51.65 | 2:50.47 | 62390 | 75186 6 | 16:42.37 | 4:10.53 | 75187 | 93989 7 | 20:53.15 | 3:24.62 | 93990 | 109351 8 | 24:18.02 | 5:22.05 | 109352 | 133506 9 | 29:40.07 | 4:04.65 | 133507 | 151871 10 | 33:44.72 | 3:39.40 | 151872 | 168336 11 | 37:24.37 | 3:45.13 | 168337 | 185224 12 | 41:09.50 | 3:03.02 | 185225 | 198951 13 | 44:12.52 | 6:35.43 | 198952 | 228619 14 | 50:48.20 | 2:30.05 | 228620 | 239874 15 | 53:18.25 | 9:21.55 | 239875 | 282004

Характеристики диапазона извлечения и сообщения об ошибках

Выбранный диапазон

Имя файла C:\Omen. Quadrilogy\Omen III\Jerry Goldsmith - The Final Conflict [The Deluxe Edition].wav

Пиковый уровень 97.9 % Качество диапазона 100.0 % CRC копии 1F842BDC Копирование... OK

Ошибок не произошло

AccurateRip: сводка

Трек 1 точное извлечение (доверие 8) [3873C766]Трек 2 точное извлечение (доверие 8) [ED5C8B33]Трек 3 точное извлечение (доверие 8) [C9E63231]Трек 4 точное извлечение (доверие 8) [EF713F15]Трек 5 точное извлечение (доверие 8) [4C5EE2DD]Трек 6 точное извлечение (доверие 8) [9A487028]Трек 7 точное извлечение (доверие 8) [0E356734]Трек 8 точное извлечение (доверие 8) [3528B511]Трек 9 точное извлечение (доверие 8) [7231B7BD]Трек 10 точное извлечение (доверие 8) [76EE0F8F]Трек 11 точное извлечение (доверие 8) [47BF2A08]Трек 12 точное извлечение (доверие 8) [9D531630]Трек 13 точное извлечение (доверие 7) [6CC099ED]Трек 14 точное извлечение (доверие 8) [B6BF9EBB]Трек 15 точное извлечение (доверие 7) [735A3C9A]

Все треки извлечены точно

Конец отчёта
01. Main Title (02:18.50)
02. Baby (Love) (02:39.08)
03. Jo & Delia (03:05.02)
04. Psychic Fair (02:54.35)
05. Jo's Death (01:48.10)
06. Information (04:01.58)
07. Equus (01:09.70)
08. Jerome's Ladder (01:21.35)
09. Delia Is Watching (01:03.55)
10. Lunch Boxing (02:28.37)
11. The Clowns (00:48.35)
12. Baby Home (01:22.53)
13. Felicity (04:57.32)
14. Karen's Baby (03:58.08)
15. The End (04:37.65)
 
Exact Audio Copy V0.99 prebeta 5 from 4. May 2009

Отчёт EAC об извлечении, выполненном 26. февраля 2010, 16:36

Jonathan Sheffer / Omen IV - The Awakening

Дисковод: TSSTcorpCDDVDW SH-S202H Adapter: 3 ID: 0

Режим чтения : ДостоверностьИспользование точного потока : ДаОтключение кэша аудио : ДаИспользование указателей C2 : Нет

Коррекция смещения при чтении : 6Способность читать области Lead-in и Lead-out : НетЗаполнение пропущенных сэмплов тишиной : ДаУдаление блоков с тишиной в начале и конце : НетПри вычислениях CRC использовались нулевые сэмплы : ДаИнтерфейс : Встроенный Win32-интерфейс для Win NT/2000

Выходной формат : Внутренние WAV-операцииФормат сэмплов : 44.100 Гц; 16 бит; стерео

TOC извлечённого CD

Трек | Старт | Длительность | Начальный сектор | Конечный сектор --------------------------------------------------------------------- 1 | 0:00.00 | 2:18.50 | 0 | 10399 2 | 2:18.50 | 2:39.08 | 10400 | 22332 3 | 4:57.58 | 3:05.02 | 22333 | 36209 4 | 8:02.60 | 2:54.35 | 36210 | 49294 5 | 10:57.20 | 1:48.10 | 49295 | 57404 6 | 12:45.30 | 4:01.58 | 57405 | 75537 7 | 16:47.13 | 1:09.70 | 75538 | 80782 8 | 17:57.08 | 1:21.35 | 80783 | 86892 9 | 19:18.43 | 1:03.55 | 86893 | 91672 10 | 20:22.23 | 2:28.37 | 91673 | 102809 11 | 22:50.60 | 0:48.35 | 102810 | 106444 12 | 23:39.20 | 1:22.53 | 106445 | 112647 13 | 25:01.73 | 4:57.32 | 112648 | 134954 14 | 29:59.30 | 3:58.08 | 134955 | 152812 15 | 33:57.38 | 4:37.65 | 152813 | 173652

Характеристики диапазона извлечения и сообщения об ошибках

Выбранный диапазон

Имя файла C:\Omen. Quadrilogy\Omen IV\Jonathan Sheffer - Omen IV - The Awakening.wav

Пиковый уровень 89.5 % Качество диапазона 100.0 % CRC копии 58B37FB7 Копирование... OK

Ошибок не произошло

AccurateRip: сводка

Трек 1 нет в базе данныхТрек 2 нет в базе данныхТрек 3 нет в базе данныхТрек 4 нет в базе данныхТрек 5 нет в базе данныхТрек 6 нет в базе данныхТрек 7 нет в базе данныхТрек 8 нет в базе данныхТрек 9 нет в базе данныхТрек 10 нет в базе данныхТрек 11 нет в базе данныхТрек 12 нет в базе данныхТрек 13 нет в базе данныхТрек 14 нет в базе данныхТрек 15 нет в базе данных

Ни одного трека нет в базе AccurateRip

Конец отчёта
The National Philharmonic Orchestra - CD1, CD2 (Tracks 1-10), CD3. The Twentieth Century Fox Orchestra - CD2 (Tracks 11-26). The Seattle Symphony Orchestra And Chorale - CD4.
Дирижеры: Lionel Newman (CD1-3); Jonathan Sheffer (CD4).
Полная версия музыки из четырех классических фильмов. Саундтреки к первым трем частям представлены в Deluxe Edition, четвертая часть не переиздавалась и не дополнялась.


Трекер:  [ 09-Июл-2011 00:40 ]

  

Скачать .torrent

Размер .torrent файла 13 KB


Размер: 1.08 GB
Хэш (hash) релиза: 9691a410dbc30ce6c4b88beb8baf6d9a8b993cac

Еще никто не оставлял запись к записи скачать торрент Jerry Goldsmith & Jonathan Sheffer - The Omen, Omen II: Damien, Omen III: The Final Conflict, Omen IV: The Awakening Омен, Омен II: Дэмиен, Омен III: Последняя битва, Омен IV: Пробуждение - 1991, 2001, APE . Будь первым!

!Обратная связь