Скачать через торрент музыку Человек-паук 2 Spider-Man 2 бесплатно без регистрации torrent

Если у вас наблюдаются проблемы со скриншотами, переходом по ссылками, скачиванием торрентов - проблемы в блокировщике рекламы AdBlock. #хорошегоДня!


Статистика раздачи
Размер:  417 MB   |    Зарегистрирован:  6 лет 2 месяца   |    .torrent скачан:  70 раз   |   
Раздают:  1  
   
Загрузка...
 
Автор Сообщение

Galfimbul

avatar Galfimbul


Человек-паук 2 / Spider-Man 2

Жанр: Soundtrack
Композитор: Danny Elfman
Год выпуска диска: 2004
Страна-производитель диска: USA

Аудио кодек: FLAC (*.flac)
Тип рипа: tracks+.cue
Битрейт аудио: lossless
Продолжительность: 60:36

Источник: Waffles.fm

Треклист:

[03:19] 01. Dashboard Confessional - Vindicated
[03:33] 02. Train - Ordinary
[03:18] 03. Hoobastank - Did You
[04:03] 04. Jet - Hold On
[05:07] 05. Yellowcard - Gifts And Curses
[05:07] 06. Maroon 5 - Woman
[04:12] 07. Taking Back Sunday - This Photograph Is Proof (I Know You Know)
[03:42] 08. Midtown - Give It Up
[04:25] 09. Lostprophets - Lucky You
[03:14] 10. Smile Empty Soul - Who I Am
[03:35] 11. The Ataris - The Night That The Lights Went Out In NYC
[03:55] 12. Ana - We Are
[05:07] 13. Jimmy Gnecco (Featuring Brian May) - Someone To Die For
[04:00] 14. Danny Elfman - Spidey Suite
[03:52] 15. Danny Elfman - Doc Ock Suite
 
Exact Audio Copy V0.99 prebeta 5 from 4. May 2009

EAC extraction logfile from 23. October 2010, 15:51

Various / Spider-Man 2

Used drive : Optiarc DVD RW AD-7201S6 Adapter: 0 ID: 1

Read mode : SecureUtilize accurate stream : YesDefeat audio cache : YesMake use of C2 pointers : No

Read offset correction : 48Overread into Lead-In and Lead-Out : NoFill up missing offset samples with silence : YesDelete leading and trailing silent blocks : NoNull samples used in CRC calculations : YesUsed interface : Native Win32 interface for Win NT & 2000Gap handling : Appended to previous track

Used output format : User Defined EncoderSelected bitrate : 320 kBit/sQuality : HighAdd ID3 tag : NoCommand line compressor : C:\Program Files\Exact Audio Copy\Flac\flac.exeAdditional command line options : -V -8 -T "artist=%a" -T "title=%t" -T "album=%g" -T "date=%y" -T "tracknumber=%n" -T "genre=%m" %s

TOC of the extracted CD

Track | Start | Length | Start sector | End sector --------------------------------------------------------- 1 | 0:00.00 | 3:19.65 | 0 | 14989 2 | 3:19.65 | 3:33.27 | 14990 | 30991 3 | 6:53.17 | 3:18.30 | 30992 | 45871 4 | 10:11.47 | 4:03.25 | 45872 | 64121 5 | 14:14.72 | 5:07.68 | 64122 | 87214 6 | 19:22.65 | 5:07.70 | 87215 | 110309 7 | 24:30.60 | 4:12.17 | 110310 | 129226 8 | 28:43.02 | 3:42.03 | 129227 | 145879 9 | 32:25.05 | 4:25.05 | 145880 | 165759 10 | 36:50.10 | 3:14.60 | 165760 | 180369 11 | 40:04.70 | 3:35.55 | 180370 | 196549 12 | 43:40.50 | 3:55.12 | 196550 | 214186 13 | 47:35.62 | 5:07.45 | 214187 | 237256 14 | 52:43.32 | 4:00.58 | 237257 | 255314 15 | 56:44.15 | 3:52.60 | 255315 | 272774

Track 1

Filename C:\Program Files\Exact Audio Copy\Rips\Various - Spider-Man 2\01 - Dashboard Confessional - Vindicated.wav

Pre-gap length 0:00:02.00

Peak level 95.4 % Track quality 100.0 % Test CRC B75DD3F8 Copy CRC B75DD3F8 Accurately ripped (confidence 59) [BB445819] Copy OK

Track 2

Filename C:\Program Files\Exact Audio Copy\Rips\Various - Spider-Man 2\02 - Train - Ordinary.wav

Peak level 99.8 % Track quality 100.0 % Test CRC 260197D4 Copy CRC 260197D4 Accurately ripped (confidence 58) [7284F1CB] Copy OK

Track 3

Filename C:\Program Files\Exact Audio Copy\Rips\Various - Spider-Man 2\03 - Hoobastank - Did You.wav

Peak level 98.8 % Track quality 100.0 % Test CRC 15B3C5C2 Copy CRC 15B3C5C2 Accurately ripped (confidence 57) [170348AF] Copy OK

Track 4

Filename C:\Program Files\Exact Audio Copy\Rips\Various - Spider-Man 2\04 - Jet - Hold On.wav

Pre-gap length 0:00:00.20

Peak level 99.8 % Track quality 100.0 % Test CRC 565D7A70 Copy CRC 565D7A70 Accurately ripped (confidence 57) [12524FAC] Copy OK

Track 5

Filename C:\Program Files\Exact Audio Copy\Rips\Various - Spider-Man 2\05 - Yellowcard - Gifts And Curses.wav

Pre-gap length 0:00:00.32

Peak level 96.5 % Track quality 100.0 % Test CRC F4BF73E0 Copy CRC F4BF73E0 Accurately ripped (confidence 57) [6C99A778] Copy OK

Track 6

Filename C:\Program Files\Exact Audio Copy\Rips\Various - Spider-Man 2\06 - Maroon 5 - Woman.wav

Peak level 96.7 % Track quality 100.0 % Test CRC 94112E38 Copy CRC 94112E38 Accurately ripped (confidence 59) [4A2AB0B7] Copy OK

Track 7

Filename C:\Program Files\Exact Audio Copy\Rips\Various - Spider-Man 2\07 - Taking Back Sunday - This Photograph Is Proof (I Know You Know).wav

Pre-gap length 0:00:00.30

Peak level 97.5 % Track quality 100.0 % Test CRC C002679C Copy CRC C002679C Accurately ripped (confidence 58) [05BE92F8] Copy OK

Track 8

Filename C:\Program Files\Exact Audio Copy\Rips\Various - Spider-Man 2\08 - Midtown - Give It Up.wav

Peak level 94.3 % Track quality 100.0 % Test CRC A2E28699 Copy CRC A2E28699 Accurately ripped (confidence 57) [C1EA4DB7] Copy OK

Track 9

Filename C:\Program Files\Exact Audio Copy\Rips\Various - Spider-Man 2\09 - Lostprophets - Lucky You.wav

Pre-gap length 0:00:00.18

Peak level 95.4 % Track quality 100.0 % Test CRC 662CBAEC Copy CRC 662CBAEC Accurately ripped (confidence 55) [CFDA94CC] Copy OK

Track 10

Filename C:\Program Files\Exact Audio Copy\Rips\Various - Spider-Man 2\10 - Smile Empty Soul - Who I Am.wav

Pre-gap length 0:00:00.30

Peak level 94.2 % Track quality 100.0 % Test CRC F8D8E162 Copy CRC F8D8E162 Accurately ripped (confidence 57) [CB49E27B] Copy OK

Track 11

Filename C:\Program Files\Exact Audio Copy\Rips\Various - Spider-Man 2\11 - The Ataris - The Night That The Lights Went Out In NYC.wav

Pre-gap length 0:00:00.18

Peak level 96.0 % Track quality 100.0 % Test CRC 653A1C79 Copy CRC 653A1C79 Accurately ripped (confidence 57) [3738EAFE] Copy OK

Track 12

Filename C:\Program Files\Exact Audio Copy\Rips\Various - Spider-Man 2\12 - Ana - We Are.wav

Pre-gap length 0:00:01.43

Peak level 92.8 % Track quality 100.0 % Test CRC 185A2F6F Copy CRC 185A2F6F Accurately ripped (confidence 58) [0E720492] Copy OK

Track 13

Filename C:\Program Files\Exact Audio Copy\Rips\Various - Spider-Man 2\13 - Jimmy Gnecco (Featuring Brian May) - Someone To Die For.wav

Pre-gap length 0:00:00.42

Peak level 99.8 % Track quality 100.0 % Test CRC 58A6A682 Copy CRC 58A6A682 Accurately ripped (confidence 56) [662D41AE] Copy OK

Track 14

Filename C:\Program Files\Exact Audio Copy\Rips\Various - Spider-Man 2\14 - Danny Elfman - Spidey Suite.wav

Peak level 99.8 % Track quality 100.0 % Test CRC 640B663A Copy CRC 640B663A Accurately ripped (confidence 57) [17311CC5] Copy OK

Track 15

Filename C:\Program Files\Exact Audio Copy\Rips\Various - Spider-Man 2\15 - Danny Elfman - Doc Ock Suite.wav

Pre-gap length 0:00:00.70

Peak level 95.5 % Track quality 99.9 % Test CRC 654D2CE4 Copy CRC 654D2CE4 Accurately ripped (confidence 53) [2EF1E106] Copy OK

All tracks accurately ripped

No errors occurred

End of status report
 
REM GENRE SoundtrackREM DATE 2004REM DISCID BB0E350FREM COMMENT "ExactAudioCopy v0.99pb5"FILE "01 - Dashboard Confessional - Vindicated.wav" WAVE TRACK 01 AUDIO INDEX 01 00:00:00FILE "02 - Train - Ordinary.wav" WAVE TRACK 02 AUDIO INDEX 01 00:00:00FILE "03 - Hoobastank - Did You.wav" WAVE TRACK 03 AUDIO INDEX 01 00:00:00 TRACK 04 AUDIO INDEX 00 03:18:10FILE "04 - Jet - Hold On.wav" WAVE INDEX 01 00:00:00 TRACK 05 AUDIO INDEX 00 04:02:68FILE "05 - Yellowcard - Gifts And Curses.wav" WAVE INDEX 01 00:00:00FILE "06 - Maroon 5 - Woman.wav" WAVE TRACK 06 AUDIO INDEX 01 00:00:00 TRACK 07 AUDIO INDEX 00 05:07:40FILE "07 - Taking Back Sunday - This Photograph Is Proof (I Know You Know).wav" WAVE INDEX 01 00:00:00FILE "08 - Midtown - Give It Up.wav" WAVE TRACK 08 AUDIO INDEX 01 00:00:00 TRACK 09 AUDIO INDEX 00 03:41:60FILE "09 - Lostprophets - Lucky You.wav" WAVE INDEX 01 00:00:00 TRACK 10 AUDIO INDEX 00 04:24:50FILE "10 - Smile Empty Soul - Who I Am.wav" WAVE INDEX 01 00:00:00 TRACK 11 AUDIO INDEX 00 03:14:42FILE "11 - The Ataris - The Night That The Lights Went Out In NYC.wav" WAVE INDEX 01 00:00:00 TRACK 12 AUDIO INDEX 00 03:34:12FILE "12 - Ana - We Are.wav" WAVE INDEX 01 00:00:00 TRACK 13 AUDIO INDEX 00 03:54:45FILE "13 - Jimmy Gnecco (Featuring Brian May) - Someone To Die For.wav" WAVE INDEX 01 00:00:00FILE "14 - Danny Elfman - Spidey Suite.wav" WAVE TRACK 14 AUDIO INDEX 01 00:00:00 TRACK 15 AUDIO INDEX 00 03:59:63FILE "15 - Danny Elfman - Doc Ock Suite.wav" WAVE INDEX 01 00:00:00


Трекер:  [ 09-Июл-2011 00:42 ]

  

Скачать .torrent

Размер .torrent файла 18 KB


Размер: 417 MB
Хэш (hash) релиза: 494298d5d33e7839ba9aebd54190808939d519ed

Торренты, похожие на Человек-паук 2 Spider-Man 2 скачать торрент

Форум Название Автор Размер S L Добавлен
Саундтреки к фильмам и мультфильмам (lossless) ·· (Score) Человек-паук 2 / Spider-Man 2 (by Danny Elfman) - 2004, FLAC (tracks+.cue), lossless Galfimbul 260686673249 MB 0 0 1380402202

00:03

29-Сен-13

Саундтреки к фильмам и мультфильмам (lossless) ·· (Score) Человек-паук 2 / Spider-Man 2 (by Danny Elfman) - 2004, FLAC (image+.cue), lossless Колян 274844997262 MB 0 0 1292270615

23:03

13-Дек-10

Еще никто не оставлял запись к записи скачать торрент Человек-паук 2 Spider-Man 2 . Будь первым!

!Обратная связь