Скачать через торрент музыку The Secret Of My Success | Секрет моего успеха бесплатно без регистрации torrent

Если у вас наблюдаются проблемы со скриншотами, переходом по ссылками, скачиванием торрентов - проблемы в блокировщике рекламы AdBlock. #хорошегоДня!


Статистика раздачи
Размер:  289 MB   |    Зарегистрирован:  6 лет 2 месяца   |    .torrent скачан:  67 раз   |   
Раздают:  1  
   
Загрузка...
 
Автор Сообщение

Galfimbul

avatar Galfimbul


The Secret Of My Success | Секрет моего успеха
Жанр: Soundtrack
Год выпуска диска: 1987
Производитель диска: USA
Аудио кодек: FLAC
Тип рипа: tracks+.cue
Битрейт аудио: lossless
Продолжительность: 40:07

Трэклист:

01. Night Ranger - The Secret Of My Success
02. Pat Benatar - Sometimes The Good Guys Finish First
03. Danny Peck & Nancy Shanks - I Burn For You
04. Bananarama - Riskin' A Romance
05. David Foster - Gazebo
06. Roger Daltrey - The Price Of Love
07. David Foster - Water Fountain
08. Restless Heart - Don't Ask The Reason Why
09. David Foster - 3 Themes
10. Taxxi - Heaven And The Heartaches
 
Exact Audio Copy V0.99 prebeta 5 from 4. May 2009

EAC extraction logfile from 12. November 2009, 12:22

Various / The Secret of My Success

Used drive : Optiarc DVD RW AD-7170A Adapter: 0 ID: 0

Read mode : SecureUtilize accurate stream : YesDefeat audio cache : YesMake use of C2 pointers : No

Read offset correction : 48Overread into Lead-In and Lead-Out : NoFill up missing offset samples with silence : YesDelete leading and trailing silent blocks : NoNull samples used in CRC calculations : YesUsed interface : Native Win32 interface for Win NT & 2000Gap handling : Appended to previous track

Used output format : User Defined EncoderSelected bitrate : 320 kBit/sQuality : HighAdd ID3 tag : NoCommand line compressor : C:\Program Files\Exact Audio Copy\Flac\flac.exeAdditional command line options : -8 -V -T "ARTIST=%a" -T "TITLE=%t" -T "ALBUM=%g" -T "DATE=%y" -T "TRACKNUMBER=%n" -T "GENRE=%m" -T "COMMENT=EAC FLAC -8" %s

TOC of the extracted CD

Track | Start | Length | Start sector | End sector --------------------------------------------------------- 1 | 0:00.00 | 4:29.39 | 0 | 20213 2 | 4:29.39 | 4:26.45 | 20214 | 40208 3 | 8:56.09 | 4:41.12 | 40209 | 61295 4 | 13:37.21 | 3:54.35 | 61296 | 78880 5 | 17:31.56 | 4:21.67 | 78881 | 98522 6 | 21:53.48 | 4:17.34 | 98523 | 117831 7 | 26:11.07 | 3:09.40 | 117832 | 132046 8 | 29:20.47 | 4:01.08 | 132047 | 150129 9 | 33:21.55 | 2:44.39 | 150130 | 162468 10 | 36:06.19 | 4:15.48 | 162469 | 181641

Track 1

Filename E:\DownLoad\SoundTrack_The Secret of My Success\01. Night Ranger – The Secret of My Success.wav

Pre-gap length 0:00:02.00

Peak level 80.1 % Track quality 100.0 % Test CRC 02FFA79A Copy CRC 02FFA79A Copy OK

Track 2

Filename E:\DownLoad\SoundTrack_The Secret of My Success\02. Pat Benatar – Sometimes the Good Guys Finish First.wav

Pre-gap length 0:00:01.36

Peak level 86.8 % Track quality 100.0 % Test CRC 72496858 Copy CRC 72496858 Copy OK

Track 3

Filename E:\DownLoad\SoundTrack_The Secret of My Success\03. Danny Peck and Nancy Shanks – I Burn For You.wav

Pre-gap length 0:00:01.36

Peak level 93.1 % Track quality 100.0 % Test CRC ADAB6C48 Copy CRC ADAB6C48 Copy OK

Track 4

Filename E:\DownLoad\SoundTrack_The Secret of My Success\04. Bananarama – Riskin' a Romance.wav

Pre-gap length 0:00:01.28

Peak level 90.7 % Track quality 100.0 % Test CRC B14CDD09 Copy CRC B14CDD09 Copy OK

Track 5

Filename E:\DownLoad\SoundTrack_The Secret of My Success\05. David Foster – Gazebo.wav

Pre-gap length 0:00:01.68

Peak level 97.4 % Track quality 100.0 % Test CRC 9D0C3C5C Copy CRC 9D0C3C5C Copy OK

Track 6

Filename E:\DownLoad\SoundTrack_The Secret of My Success\06. Roger Daltrey – The Price of Love.wav

Pre-gap length 0:00:02.44

Peak level 96.5 % Track quality 100.0 % Test CRC 898E34AA Copy CRC 898E34AA Copy OK

Track 7

Filename E:\DownLoad\SoundTrack_The Secret of My Success\07. David Foster – Water Fountain.wav

Pre-gap length 0:00:01.09

Peak level 62.3 % Track quality 99.8 % Test CRC C7FD36DF Copy CRC C7FD36DF Copy OK

Track 8

Filename E:\DownLoad\SoundTrack_The Secret of My Success\08. Restless Heart – Don't Ask the Reason Why.wav

Pre-gap length 0:00:01.93

Peak level 100.0 % Track quality 100.0 % Test CRC AD53EA0C Copy CRC AD53EA0C Copy OK

Track 9

Filename E:\DownLoad\SoundTrack_The Secret of My Success\09. David Foster – 3 Themes.wav

Peak level 70.0 % Track quality 100.0 % Test CRC EE08BA67 Copy CRC EE08BA67 Copy OK

Track 10

Filename E:\DownLoad\SoundTrack_The Secret of My Success\10. Taxxi – Heaven and the Heartaches.wav

Pre-gap length 0:00:03.45

Peak level 69.1 % Track quality 100.0 % Test CRC 2EBAF5FE Copy CRC 2EBAF5FE Copy OK

No errors occurred

End of status report


Трекер:  [ 09-Июл-2011 00:20 ]

  

Скачать .torrent

Размер .torrent файла 13 KB


Размер: 289 MB
Хэш (hash) релиза: e93ef5c98bba96bd6f1e1b92caa383087744b516

Еще никто не оставлял запись к записи скачать торрент The Secret Of My Success | Секрет моего успеха . Будь первым!

!Обратная связь