Скачать через торрент музыку Jerry Goldsmith - 1982 - Poltergeist Полтергейст бесплатно без регистрации torrent

Если у вас наблюдаются проблемы со скриншотами, переходом по ссылками, скачиванием торрентов - проблемы в блокировщике рекламы AdBlock. #хорошегоДня!


Статистика раздачи
Размер:  345 MB   |    Зарегистрирован:  6 лет 2 месяца   |    .torrent скачан:  38 раз   |   
Раздают:  1  
   
Загрузка...
 
Автор Сообщение

Galfimbul

avatar Galfimbul


Jerry Goldsmith - 1982 - Poltergeist
Жанр: Score
Год выпуска диска: 1997
Производитель диска: US
Формат: FLAC (tracks+.cue), lossless
Продолжительность: 68:09
Трэклист:
1. The Star Spangled Banner (1:30)
2. The Calling / The Neighborhood (Main Title) (4:08)
3. The Tree (2:27)
4. The Clown / They're Here / Broken Glass (Outtake) / The Hole (Outtake) / TV People (5:15)
5. Twisted Abduction (6:58)
6. Contacting the Other Side (5:12)
7. The Light (2:07)
8. Night Visitor / No Complaints (9:06)
9. It Knows What Scares You (7:37)
10. Rebirth (8:26)
11. Night of the Beast (3:52)
12. Escape From Suburbia (7:13)
13. Carol Anne's Theme (End Title) (4:18)
 
Exact Audio Copy V0.99 prebeta 5 from 4. May 2009

EAC extraction logfile from 2. October 2009, 20:28

Jerry Goldsmith / Poltergeist

Used drive : PLEXTOR CD-R PREMIUM Adapter: 1 ID: 1

Read mode : SecureUtilize accurate stream : YesDefeat audio cache : YesMake use of C2 pointers : No

Read offset correction : 30Overread into Lead-In and Lead-Out : NoFill up missing offset samples with silence : YesDelete leading and trailing silent blocks : NoNull samples used in CRC calculations : YesUsed interface : Native Win32 interface for Win NT & 2000Gap handling : Appended to previous track

Used output format : Internal WAV RoutinesSample format : 44.100 Hz; 16 Bit; Stereo

TOC of the extracted CD

Track | Start | Length | Start sector | End sector --------------------------------------------------------- 1 | 0:00.32 | 1:30.18 | 32 | 6799 2 | 1:30.50 | 4:08.27 | 6800 | 25426 3 | 5:39.02 | 2:26.55 | 25427 | 36431 4 | 8:05.57 | 5:15.08 | 36432 | 60064 5 | 13:20.65 | 6:58.22 | 60065 | 91436 6 | 20:19.12 | 5:12.28 | 91437 | 114864 7 | 25:31.40 | 2:06.70 | 114865 | 124384 8 | 27:38.35 | 9:05.52 | 124385 | 165311 9 | 36:44.12 | 7:36.73 | 165312 | 199584 10 | 44:21.10 | 8:25.57 | 199585 | 237516 11 | 52:46.67 | 3:51.50 | 237517 | 254891 12 | 56:38.42 | 7:13.00 | 254892 | 287366 13 | 63:51.42 | 4:19.23 | 287367 | 306814

Track 1

Filename L:\Audio\RIPS\01 - The Star Spangled Banner.wav

Pre-gap length 0:00:02.42

Peak level 97.6 % Track quality 100.0 % Test CRC D18ABCDE Copy CRC D18ABCDE Accurately ripped (confidence 11) [695D3F2F] Copy OK

Track 2

Filename L:\Audio\RIPS\02 - The Calling , The Neighborhood (Main Title).wav

Pre-gap length 0:00:00.04

Peak level 77.5 % Track quality 99.9 % Test CRC 15E5795A Copy CRC 15E5795A Accurately ripped (confidence 11) [4503FE7A] Copy OK

Track 3

Filename L:\Audio\RIPS\03 - The Tree.wav

Pre-gap length 0:00:01.53

Peak level 41.8 % Track quality 100.0 % Test CRC C045F450 Copy CRC C045F450 Accurately ripped (confidence 11) [47D12A2E] Copy OK

Track 4

Filename L:\Audio\RIPS\04 - The Clown , They're Here , Broken Glass , The Hole , TV People.wav

Pre-gap length 0:00:00.53

Peak level 100.0 % Track quality 99.9 % Test CRC 2B0D34CC Copy CRC 2B0D34CC Accurately ripped (confidence 11) [9912C4A8] Copy OK

Track 5

Filename L:\Audio\RIPS\05 - Twisted Abduction.wav

Pre-gap length 0:00:02.93

Peak level 98.4 % Track quality 100.0 % Test CRC 575DBB71 Copy CRC 575DBB71 Accurately ripped (confidence 11) [8CF2061A] Copy OK

Track 6

Filename L:\Audio\RIPS\06 - Contacting The Other Side.wav

Pre-gap length 0:00:02.02

Peak level 98.1 % Track quality 100.0 % Test CRC A61B48E8 Copy CRC A61B48E8 Accurately ripped (confidence 10) [E8DC6DB1] Copy OK

Track 7

Filename L:\Audio\RIPS\07 - The Light.wav

Pre-gap length 0:00:01.64

Peak level 46.1 % Track quality 100.0 % Test CRC 879BE21C Copy CRC 879BE21C Accurately ripped (confidence 11) [F82CC9A3] Copy OK

Track 8

Filename L:\Audio\RIPS\08 - Night Visitor , No Complaints.wav

Pre-gap length 0:00:02.24

Peak level 97.7 % Track quality 100.0 % Test CRC 79462666 Copy CRC 79462666 Accurately ripped (confidence 10) [A4677FA8] Copy OK

Track 9

Filename L:\Audio\RIPS\09 - It Knows What Scares You.wav

Pre-gap length 0:00:01.96

Peak level 82.1 % Track quality 100.0 % Test CRC 0FEDBA9A Copy CRC 0FEDBA9A Accurately ripped (confidence 11) [F0FB6145] Copy OK

Track 10

Filename L:\Audio\RIPS\10 - Rebirth.wav

Pre-gap length 0:00:00.04

Peak level 97.6 % Track quality 100.0 % Test CRC 8890EBE5 Copy CRC 8890EBE5 Accurately ripped (confidence 11) [64CEA879] Copy OK

Track 11

Filename L:\Audio\RIPS\11 - Night Of The Beast.wav

Pre-gap length 0:00:02.33

Peak level 97.9 % Track quality 100.0 % Test CRC 06B47766 Copy CRC 06B47766 Accurately ripped (confidence 12) [115A6FF5] Copy OK

Track 12

Filename L:\Audio\RIPS\12 - Escape From Suburbia.wav

Pre-gap length 0:00:00.02

Peak level 97.8 % Track quality 99.9 % Test CRC E756BA7B Copy CRC E756BA7B Accurately ripped (confidence 11) [C958B99A] Copy OK

Track 13

Filename L:\Audio\RIPS\13 - Carol Anne's Theme (End Title).wav

Pre-gap length 0:00:02.66

Peak level 76.4 % Track quality 99.7 % Test CRC 5476AD1E Copy CRC 5476AD1E Accurately ripped (confidence 10) [D23C9840] Copy OK

All tracks accurately ripped

No errors occurred

End of status report
источник www.waffles.fm, автор manofsteel


Трекер:  [ 09-Июл-2011 00:20 ]

  

Скачать .torrent

Размер .torrent файла 15 KB


Размер: 345 MB
Хэш (hash) релиза: 0b20586986ba5cc8aad044311313ed408c3ebc3f

Торренты, похожие на Jerry Goldsmith - 1982 - Poltergeist Полтергейст скачать торрент

Форум Название Автор Размер S L Добавлен
Саундтреки к фильмам и мультфильмам (lossless) ·· (Score) Полтергейст / Poltergeist [2CD] (by Jerry Goldsmith) - 2010 (1982), FLAC (tracks+.cue), lossless Galfimbul 800913173764 MB 0 0 1327240297

16:51

22-Янв-12

Саундтреки к фильмам и мультфильмам (mp3) ·· (Score) Полтергейст / Poltergeist (by Jerry Goldsmith) [2CD] - 2010 (1982), MP3, 320 kbps Galfimbul 336751280321 MB 0 0 1326718891

16:01

16-Янв-12

Еще никто не оставлял запись к записи скачать торрент Jerry Goldsmith - 1982 - Poltergeist Полтергейст . Будь первым!

!Обратная связь