Скачать через торрент музыку Облачно, возможны осадки в виде фрикаделек Cloudy With A Chance Of Meatballs бесплатно без регистрации torrent

Если у вас наблюдаются проблемы со скриншотами, переходом по ссылками, скачиванием торрентов - проблемы в блокировщике рекламы AdBlock. #хорошегоДня!


Статистика раздачи
Размер:  377 MB   |    Зарегистрирован:  6 лет 2 месяца   |    .torrent скачан:  32 раза   |   
Раздают:  1  
   
Загрузка...
 
Автор Сообщение

Galfimbul

avatar Galfimbul


Облачно, возможны осадки в виде фрикаделек / Cloudy With A Chance Of Meatballs

Жанр: Score || Композитор: Mark Mothersbaugh || Год выпуска: 2009 || Страна: USA || Аудио кодек: FLAC || Тип рипа: tracks+.cue || Битрейт аудио: lossless
Продолжительность: 01:05:53 || Источник: what.cd

01 - Raining Sunshine (03:44)
performed by Miranda Cosgrove
02 - Swallow Falls (00:47)
03 - Introducing Flint (04:16)
04 - The Latest Invention (01:24)
05 - The Mayor / Earl Warns Flint (01:17)
06 - Sam's Big Break (00:51)
07 - Powering Up (01:05)
08 - Failure Again (01:55)
09 - Meatier Shower (03:11)
10 - A Father's Love (01:20)
11 - Ice Cream Wonderland (01:23)
12 - Snowball! (01:15)
13 - The Mayor's Big Plan (01:16)
14 - Activation and the Jello Dome (01:40)
15 - Sam and Flint Bond (02:01)
16 - Doubting Dad / Mutations (02:58)
17 - The Spaghetti Twister (03:08)
18 - Aftermath (02:26)
19 - Flint's Determination (02:44)
20 - The Food Storm (02:08)
21 - The Mission Begins (02:37)
22 - Outside the Meatball (01:58)
23 - Inside the Meatball (01:39)
24 - Earl Takes Charge (02:01)
25 - Sentient Chickens (02:42)
26 - Worldwide Chaos (00:57)
27 - Anaphylactic Love (01:42)
28 - Attack of the Gummy Bears (01:41)
29 - Here's the Cheese (01:25)
30 - The Heart of the Meatball (01:18)
31 - Spray-On Triumph (01:56)
32 - Flint Returns (03:32)
33 - Sunshine, Lollipops, and Rainbows (01:38)
performed by Lesley Gore

 
Exact Audio Copy V0.99 prebeta 4 from 23. January 2008

EAC extraction logfile from 19. August 2010, 9:42

Mark Mothersbaugh / Cloudy with a Chance of Meatballs

Used drive : LITE-ON LTR-52246S Adapter: 1 ID: 1

Read mode : SecureUtilize accurate stream : YesDefeat audio cache : YesMake use of C2 pointers : No

Read offset correction : 6Overread into Lead-In and Lead-Out : NoFill up missing offset samples with silence : YesDelete leading and trailing silent blocks : NoNull samples used in CRC calculations : YesUsed interface : Installed external ASPI interfaceGap handling : Appended to previous track

Used output format : User Defined EncoderSelected bitrate : 32 kBit/sQuality : HighAdd ID3 tag : NoCommand line compressor : C:\Program Files\Exact Audio Copy\Flac\flac.exeAdditional command line options : -V -8 -T "artist=%a" -T "title=%t" -T "album=%g" -T "date=%y" -T "tracknumber=%n" -T "genre=%m" %s

TOC of the extracted CD

Track | Start | Length | Start sector | End sector --------------------------------------------------------- 1 | 0:00.00 | 3:44.27 | 0 | 16826 2 | 3:44.27 | 0:47.07 | 16827 | 20358 3 | 4:31.34 | 4:16.13 | 20359 | 39571 4 | 8:47.47 | 1:23.59 | 39572 | 45855 5 | 10:11.31 | 1:17.10 | 45856 | 51640 6 | 11:28.41 | 0:50.43 | 51641 | 55433 7 | 12:19.09 | 1:05.10 | 55434 | 60318 8 | 13:24.19 | 1:54.55 | 60319 | 68923 9 | 15:18.74 | 3:10.47 | 68924 | 83220 10 | 18:29.46 | 1:19.48 | 83221 | 89193 11 | 19:49.19 | 1:22.59 | 89194 | 95402 12 | 21:12.03 | 1:15.03 | 95403 | 101030 13 | 22:27.06 | 1:16.34 | 101031 | 106764 14 | 23:43.40 | 1:39.59 | 106765 | 114248 15 | 25:23.24 | 2:00.62 | 114249 | 123310 16 | 27:24.11 | 2:57.61 | 123311 | 136646 17 | 30:21.72 | 3:08.08 | 136647 | 150754 18 | 33:30.05 | 2:26.25 | 150755 | 161729 19 | 35:56.30 | 2:44.15 | 161730 | 174044 20 | 38:40.45 | 2:08.33 | 174045 | 183677 21 | 40:49.03 | 2:36.58 | 183678 | 195435 22 | 43:25.61 | 1:57.52 | 195436 | 204262 23 | 45:23.38 | 1:39.14 | 204263 | 211701 24 | 47:02.52 | 2:00.57 | 211702 | 220758 25 | 49:03.34 | 2:42.21 | 220759 | 232929 26 | 51:45.55 | 0:57.02 | 232930 | 237206 27 | 52:42.57 | 1:42.00 | 237207 | 244856 28 | 54:24.57 | 1:40.43 | 244857 | 252399 29 | 56:05.25 | 1:25.06 | 252400 | 258780 30 | 57:30.31 | 1:17.56 | 258781 | 264611 31 | 58:48.12 | 1:55.55 | 264612 | 273291 32 | 60:43.67 | 3:31.68 | 273292 | 289184 33 | 64:15.60 | 1:37.46 | 289185 | 296505

Track 1

Filename C:\Audio\Converted Music\Mark Mothersbaugh - Cloudy with a Chance of Meatballs - FLAC\01 - Mark Mothersbaugh - Raining Sunshine [Feat. Miranda Cosgrove].wav

Pre-gap length 0:00:02.00

Peak level 49.5 % Track quality 100.0 % Test CRC 75629A0D Copy CRC 75629A0D Accurately ripped (confidence 2) [BF718497] Copy OK

Track 2

Filename C:\Audio\Converted Music\Mark Mothersbaugh - Cloudy with a Chance of Meatballs - FLAC\02 - Mark Mothersbaugh - Swallow Falls.wav

Peak level 84.3 % Track quality 100.0 % Test CRC 4C9FB436 Copy CRC 4C9FB436 Accurately ripped (confidence 2) [D73EF890] Copy OK

Track 3

Filename C:\Audio\Converted Music\Mark Mothersbaugh - Cloudy with a Chance of Meatballs - FLAC\03 - Mark Mothersbaugh - Introducing Flint.wav

Peak level 98.1 % Track quality 100.0 % Test CRC A3945AD7 Copy CRC A3945AD7 Accurately ripped (confidence 2) [66038645] Copy OK

Track 4

Filename C:\Audio\Converted Music\Mark Mothersbaugh - Cloudy with a Chance of Meatballs - FLAC\04 - Mark Mothersbaugh - The Latest Invention.wav

Peak level 98.1 % Track quality 100.0 % Test CRC 85ACCC9F Copy CRC 85ACCC9F Accurately ripped (confidence 2) [9B23DF53] Copy OK

Track 5

Filename C:\Audio\Converted Music\Mark Mothersbaugh - Cloudy with a Chance of Meatballs - FLAC\05 - Mark Mothersbaugh - The Mayor,Earl Warns Flint.wav

Peak level 94.6 % Track quality 100.0 % Test CRC 832F7D44 Copy CRC 832F7D44 Accurately ripped (confidence 2) [17B8F86F] Copy OK

Track 6

Filename C:\Audio\Converted Music\Mark Mothersbaugh - Cloudy with a Chance of Meatballs - FLAC\06 - Mark Mothersbaugh - Sam's Big Break.wav

Peak level 85.3 % Track quality 100.0 % Test CRC D3A8367F Copy CRC D3A8367F Accurately ripped (confidence 2) [E4CF59BE] Copy OK

Track 7

Filename C:\Audio\Converted Music\Mark Mothersbaugh - Cloudy with a Chance of Meatballs - FLAC\07 - Mark Mothersbaugh - Powering Up.wav

Peak level 98.2 % Track quality 100.0 % Test CRC 51909AA4 Copy CRC 51909AA4 Accurately ripped (confidence 2) [74F79E58] Copy OK

Track 8

Filename C:\Audio\Converted Music\Mark Mothersbaugh - Cloudy with a Chance of Meatballs - FLAC\08 - Mark Mothersbaugh - Failure Again.wav

Peak level 98.1 % Track quality 100.0 % Test CRC A782EF4D Copy CRC A782EF4D Accurately ripped (confidence 2) [4359FF43] Copy OK

Track 9

Filename C:\Audio\Converted Music\Mark Mothersbaugh - Cloudy with a Chance of Meatballs - FLAC\09 - Mark Mothersbaugh - Meatier Shower.wav

Peak level 98.3 % Track quality 100.0 % Test CRC CD76653B Copy CRC CD76653B Accurately ripped (confidence 2) [FCD40994] Copy OK

Track 10

Filename C:\Audio\Converted Music\Mark Mothersbaugh - Cloudy with a Chance of Meatballs - FLAC\10 - Mark Mothersbaugh - A Father's Love.wav

Peak level 13.4 % Track quality 100.0 % Test CRC 99ABCA4F Copy CRC 99ABCA4F Accurately ripped (confidence 2) [2E6F71D8] Copy OK

Track 11

Filename C:\Audio\Converted Music\Mark Mothersbaugh - Cloudy with a Chance of Meatballs - FLAC\11 - Mark Mothersbaugh - Ice Cream Wonderland.wav

Peak level 98.0 % Track quality 100.0 % Test CRC AE305A85 Copy CRC AE305A85 Accurately ripped (confidence 2) [469E0F60] Copy OK

Track 12

Filename C:\Audio\Converted Music\Mark Mothersbaugh - Cloudy with a Chance of Meatballs - FLAC\12 - Mark Mothersbaugh - Snowball!.wav

Peak level 97.9 % Track quality 99.8 % Test CRC D31F9A45 Copy CRC D31F9A45 Accurately ripped (confidence 2) [67085899] Copy OK

Track 13

Filename C:\Audio\Converted Music\Mark Mothersbaugh - Cloudy with a Chance of Meatballs - FLAC\13 - Mark Mothersbaugh - The Mayor's Big Plan.wav

Peak level 93.6 % Track quality 100.0 % Test CRC D81183CF Copy CRC D81183CF Accurately ripped (confidence 2) [AE07E322] Copy OK

Track 14

Filename C:\Audio\Converted Music\Mark Mothersbaugh - Cloudy with a Chance of Meatballs - FLAC\14 - Mark Mothersbaugh - Activation and the Jello Dome.wav

Peak level 98.0 % Track quality 100.0 % Test CRC 01C0B73E Copy CRC 01C0B73E Accurately ripped (confidence 2) [013B2DAF] Copy OK

Track 15

Filename C:\Audio\Converted Music\Mark Mothersbaugh - Cloudy with a Chance of Meatballs - FLAC\15 - Mark Mothersbaugh - Sam and Flint Bond.wav

Peak level 98.0 % Track quality 100.0 % Test CRC 175EC0E2 Copy CRC 175EC0E2 Accurately ripped (confidence 2) [35F53703] Copy OK

Track 16

Filename C:\Audio\Converted Music\Mark Mothersbaugh - Cloudy with a Chance of Meatballs - FLAC\16 - Mark Mothersbaugh - Doubting Dad,Mutations.wav

Peak level 98.0 % Track quality 100.0 % Test CRC 8341272F Copy CRC 8341272F Accurately ripped (confidence 2) [8098B0D5] Copy OK

Track 17

Filename C:\Audio\Converted Music\Mark Mothersbaugh - Cloudy with a Chance of Meatballs - FLAC\17 - Mark Mothersbaugh - The Spaghetti Twister.wav

Peak level 98.3 % Track quality 100.0 % Test CRC 489F44DF Copy CRC 489F44DF Accurately ripped (confidence 2) [3D2FDF7F] Copy OK

Track 18

Filename C:\Audio\Converted Music\Mark Mothersbaugh - Cloudy with a Chance of Meatballs - FLAC\18 - Mark Mothersbaugh - Aftermath.wav

Peak level 97.9 % Track quality 100.0 % Test CRC 19949696 Copy CRC 19949696 Accurately ripped (confidence 2) [D3EA975A] Copy OK

Track 19

Filename C:\Audio\Converted Music\Mark Mothersbaugh - Cloudy with a Chance of Meatballs - FLAC\19 - Mark Mothersbaugh - Flint's Determination.wav

Peak level 98.1 % Track quality 100.0 % Test CRC A93B74FD Copy CRC A93B74FD Accurately ripped (confidence 2) [1953DBCD] Copy OK

Track 20

Filename C:\Audio\Converted Music\Mark Mothersbaugh - Cloudy with a Chance of Meatballs - FLAC\20 - Mark Mothersbaugh - The Food Storm.wav

Peak level 98.2 % Track quality 100.0 % Test CRC 39C15C25 Copy CRC 39C15C25 Accurately ripped (confidence 2) [2C7FB48B] Copy OK

Track 21

Filename C:\Audio\Converted Music\Mark Mothersbaugh - Cloudy with a Chance of Meatballs - FLAC\21 - Mark Mothersbaugh - The Mission Begins.wav

Peak level 98.1 % Track quality 100.0 % Test CRC C9199BF9 Copy CRC C9199BF9 Accurately ripped (confidence 2) [F537F28B] Copy OK

Track 22

Filename C:\Audio\Converted Music\Mark Mothersbaugh - Cloudy with a Chance of Meatballs - FLAC\22 - Mark Mothersbaugh - Outside the Meatball.wav

Peak level 98.2 % Track quality 100.0 % Test CRC 3A695636 Copy CRC 3A695636 Accurately ripped (confidence 2) [09EB3F63] Copy OK

Track 23

Filename C:\Audio\Converted Music\Mark Mothersbaugh - Cloudy with a Chance of Meatballs - FLAC\23 - Mark Mothersbaugh - Inside the Meatball.wav

Peak level 97.9 % Track quality 100.0 % Test CRC AEA3CD30 Copy CRC AEA3CD30 Accurately ripped (confidence 2) [64124B7F] Copy OK

Track 24

Filename C:\Audio\Converted Music\Mark Mothersbaugh - Cloudy with a Chance of Meatballs - FLAC\24 - Mark Mothersbaugh - Earl Takes Charge.wav

Peak level 98.3 % Track quality 100.0 % Test CRC AC37E03B Copy CRC AC37E03B Accurately ripped (confidence 2) [5E0CE333] Copy OK

Track 25

Filename C:\Audio\Converted Music\Mark Mothersbaugh - Cloudy with a Chance of Meatballs - FLAC\25 - Mark Mothersbaugh - Sentient Chickens.wav

Peak level 98.0 % Track quality 100.0 % Test CRC 90DEE85B Copy CRC 90DEE85B Accurately ripped (confidence 2) [38F56142] Copy OK

Track 26

Filename C:\Audio\Converted Music\Mark Mothersbaugh - Cloudy with a Chance of Meatballs - FLAC\26 - Mark Mothersbaugh - Worldwide Chaos.wav

Peak level 98.0 % Track quality 100.0 % Test CRC C29C03B3 Copy CRC C29C03B3 Accurately ripped (confidence 2) [695BC0EA] Copy OK

Track 27

Filename C:\Audio\Converted Music\Mark Mothersbaugh - Cloudy with a Chance of Meatballs - FLAC\27 - Mark Mothersbaugh - Anaphylactic Love.wav

Peak level 98.1 % Track quality 100.0 % Test CRC EC77EE62 Copy CRC EC77EE62 Accurately ripped (confidence 2) [32CCE767] Copy OK

Track 28

Filename C:\Audio\Converted Music\Mark Mothersbaugh - Cloudy with a Chance of Meatballs - FLAC\28 - Mark Mothersbaugh - Attack of the Gummy Bears.wav

Peak level 98.1 % Track quality 100.0 % Test CRC 72B482AE Copy CRC 72B482AE Accurately ripped (confidence 2) [8ECF5ECB] Copy OK

Track 29

Filename C:\Audio\Converted Music\Mark Mothersbaugh - Cloudy with a Chance of Meatballs - FLAC\29 - Mark Mothersbaugh - Here's the Cheese.wav

Peak level 98.2 % Track quality 100.0 % Test CRC 67C1C967 Copy CRC 67C1C967 Accurately ripped (confidence 2) [6A456CDC] Copy OK

Track 30

Filename C:\Audio\Converted Music\Mark Mothersbaugh - Cloudy with a Chance of Meatballs - FLAC\30 - Mark Mothersbaugh - The Heart of the Meatball.wav

Peak level 98.2 % Track quality 100.0 % Test CRC C579EFA7 Copy CRC C579EFA7 Accurately ripped (confidence 2) [EE7E5280] Copy OK

Track 31

Filename C:\Audio\Converted Music\Mark Mothersbaugh - Cloudy with a Chance of Meatballs - FLAC\31 - Mark Mothersbaugh - Spray-On Triumph.wav

Peak level 98.1 % Track quality 100.0 % Test CRC C737BD1E Copy CRC C737BD1E Accurately ripped (confidence 2) [AA98DB54] Copy OK

Track 32

Filename C:\Audio\Converted Music\Mark Mothersbaugh - Cloudy with a Chance of Meatballs - FLAC\32 - Mark Mothersbaugh - Flint Returns.wav

Peak level 98.0 % Track quality 100.0 % Test CRC F8C6C8E1 Copy CRC F8C6C8E1 Accurately ripped (confidence 2) [2D416185] Copy OK

Track 33

Filename C:\Audio\Converted Music\Mark Mothersbaugh - Cloudy with a Chance of Meatballs - FLAC\33 - Mark Mothersbaugh - Sunshine, Lollipops, and Rainbows [Feat. Lesley Gore].wav

Peak level 79.8 % Track quality 100.0 % Test CRC D3879EF3 Copy CRC D3879EF3 Accurately ripped (confidence 2) [DDE2B87C] Copy OK

All tracks accurately ripped

No errors occurred

End of status report
 
REM GENRE SoundtrackREM DATE 2009REM DISCID BA0F7121REM COMMENT "ExactAudioCopy v0.99pb4"PERFORMER "Mark Mothersbaugh"TITLE "Cloudy with a Chance of Meatballs"FILE "01 - Mark Mothersbaugh - Raining Sunshine [Feat. Miranda Cosgrove].wav" WAVE TRACK 01 AUDIO TITLE "Raining Sunshine [Feat. Miranda Cosgrove]" PERFORMER "Mark Mothersbaugh" FLAGS DCP INDEX 01 00:00:00FILE "02 - Mark Mothersbaugh - Swallow Falls.wav" WAVE TRACK 02 AUDIO TITLE "Swallow Falls" PERFORMER "Mark Mothersbaugh" FLAGS DCP INDEX 01 00:00:00FILE "03 - Mark Mothersbaugh - Introducing Flint.wav" WAVE TRACK 03 AUDIO TITLE "Introducing Flint" PERFORMER "Mark Mothersbaugh" FLAGS DCP INDEX 01 00:00:00FILE "04 - Mark Mothersbaugh - The Latest Invention.wav" WAVE TRACK 04 AUDIO TITLE "The Latest Invention" PERFORMER "Mark Mothersbaugh" FLAGS DCP INDEX 01 00:00:00FILE "05 - Mark Mothersbaugh - The Mayor,Earl Warns Flint.wav" WAVE TRACK 05 AUDIO TITLE "The Mayor/Earl Warns Flint" PERFORMER "Mark Mothersbaugh" FLAGS DCP INDEX 01 00:00:00FILE "06 - Mark Mothersbaugh - Sam's Big Break.wav" WAVE TRACK 06 AUDIO TITLE "Sam's Big Break" PERFORMER "Mark Mothersbaugh" FLAGS DCP INDEX 01 00:00:00FILE "07 - Mark Mothersbaugh - Powering Up.wav" WAVE TRACK 07 AUDIO TITLE "Powering Up" PERFORMER "Mark Mothersbaugh" FLAGS DCP INDEX 01 00:00:00FILE "08 - Mark Mothersbaugh - Failure Again.wav" WAVE TRACK 08 AUDIO TITLE "Failure Again" PERFORMER "Mark Mothersbaugh" FLAGS DCP INDEX 01 00:00:00FILE "09 - Mark Mothersbaugh - Meatier Shower.wav" WAVE TRACK 09 AUDIO TITLE "Meatier Shower" PERFORMER "Mark Mothersbaugh" FLAGS DCP INDEX 01 00:00:00FILE "10 - Mark Mothersbaugh - A Father's Love.wav" WAVE TRACK 10 AUDIO TITLE "A Father's Love" PERFORMER "Mark Mothersbaugh" FLAGS DCP INDEX 01 00:00:00FILE "11 - Mark Mothersbaugh - Ice Cream Wonderland.wav" WAVE TRACK 11 AUDIO TITLE "Ice Cream Wonderland" PERFORMER "Mark Mothersbaugh" FLAGS DCP INDEX 01 00:00:00FILE "12 - Mark Mothersbaugh - Snowball!.wav" WAVE TRACK 12 AUDIO TITLE "Snowball!" PERFORMER "Mark Mothersbaugh" FLAGS DCP INDEX 01 00:00:00FILE "13 - Mark Mothersbaugh - The Mayor's Big Plan.wav" WAVE TRACK 13 AUDIO TITLE "The Mayor's Big Plan" PERFORMER "Mark Mothersbaugh" FLAGS DCP INDEX 01 00:00:00FILE "14 - Mark Mothersbaugh - Activation and the Jello Dome.wav" WAVE TRACK 14 AUDIO TITLE "Activation and the Jello Dome" PERFORMER "Mark Mothersbaugh" FLAGS DCP INDEX 01 00:00:00FILE "15 - Mark Mothersbaugh - Sam and Flint Bond.wav" WAVE TRACK 15 AUDIO TITLE "Sam and Flint Bond" PERFORMER "Mark Mothersbaugh" FLAGS DCP INDEX 01 00:00:00FILE "16 - Mark Mothersbaugh - Doubting Dad,Mutations.wav" WAVE TRACK 16 AUDIO TITLE "Doubting Dad/Mutations" PERFORMER "Mark Mothersbaugh" FLAGS DCP INDEX 01 00:00:00FILE "17 - Mark Mothersbaugh - The Spaghetti Twister.wav" WAVE TRACK 17 AUDIO TITLE "The Spaghetti Twister" PERFORMER "Mark Mothersbaugh" FLAGS DCP INDEX 01 00:00:00FILE "18 - Mark Mothersbaugh - Aftermath.wav" WAVE TRACK 18 AUDIO TITLE "Aftermath" PERFORMER "Mark Mothersbaugh" FLAGS DCP INDEX 01 00:00:00FILE "19 - Mark Mothersbaugh - Flint's Determination.wav" WAVE TRACK 19 AUDIO TITLE "Flint's Determination" PERFORMER "Mark Mothersbaugh" FLAGS DCP INDEX 01 00:00:00FILE "20 - Mark Mothersbaugh - The Food Storm.wav" WAVE TRACK 20 AUDIO TITLE "The Food Storm" PERFORMER "Mark Mothersbaugh" FLAGS DCP INDEX 01 00:00:00FILE "21 - Mark Mothersbaugh - The Mission Begins.wav" WAVE TRACK 21 AUDIO TITLE "The Mission Begins" PERFORMER "Mark Mothersbaugh" FLAGS DCP INDEX 01 00:00:00FILE "22 - Mark Mothersbaugh - Outside the Meatball.wav" WAVE TRACK 22 AUDIO TITLE "Outside the Meatball" PERFORMER "Mark Mothersbaugh" FLAGS DCP INDEX 01 00:00:00FILE "23 - Mark Mothersbaugh - Inside the Meatball.wav" WAVE TRACK 23 AUDIO TITLE "Inside the Meatball" PERFORMER "Mark Mothersbaugh" FLAGS DCP INDEX 01 00:00:00FILE "24 - Mark Mothersbaugh - Earl Takes Charge.wav" WAVE TRACK 24 AUDIO TITLE "Earl Takes Charge" PERFORMER "Mark Mothersbaugh" FLAGS DCP INDEX 01 00:00:00FILE "25 - Mark Mothersbaugh - Sentient Chickens.wav" WAVE TRACK 25 AUDIO TITLE "Sentient Chickens" PERFORMER "Mark Mothersbaugh" FLAGS DCP INDEX 01 00:00:00FILE "26 - Mark Mothersbaugh - Worldwide Chaos.wav" WAVE TRACK 26 AUDIO TITLE "Worldwide Chaos" PERFORMER "Mark Mothersbaugh" FLAGS DCP INDEX 01 00:00:00FILE "27 - Mark Mothersbaugh - Anaphylactic Love.wav" WAVE TRACK 27 AUDIO TITLE "Anaphylactic Love" PERFORMER "Mark Mothersbaugh" FLAGS DCP INDEX 01 00:00:00FILE "28 - Mark Mothersbaugh - Attack of the Gummy Bears.wav" WAVE TRACK 28 AUDIO TITLE "Attack of the Gummy Bears" PERFORMER "Mark Mothersbaugh" FLAGS DCP INDEX 01 00:00:00FILE "29 - Mark Mothersbaugh - Here's the Cheese.wav" WAVE TRACK 29 AUDIO TITLE "Here's the Cheese" PERFORMER "Mark Mothersbaugh" FLAGS DCP INDEX 01 00:00:00FILE "30 - Mark Mothersbaugh - The Heart of the Meatball.wav" WAVE TRACK 30 AUDIO TITLE "The Heart of the Meatball" PERFORMER "Mark Mothersbaugh" FLAGS DCP INDEX 01 00:00:00FILE "31 - Mark Mothersbaugh - Spray-On Triumph.wav" WAVE TRACK 31 AUDIO TITLE "Spray-On Triumph" PERFORMER "Mark Mothersbaugh" FLAGS DCP INDEX 01 00:00:00FILE "32 - Mark Mothersbaugh - Flint Returns.wav" WAVE TRACK 32 AUDIO TITLE "Flint Returns" PERFORMER "Mark Mothersbaugh" FLAGS DCP INDEX 01 00:00:00FILE "33 - Mark Mothersbaugh - Sunshine, Lollipops, and Rainbows [Feat. Lesley Gore].wav" WAVE TRACK 33 AUDIO TITLE "Sunshine, Lollipops, and Rainbows [Feat. Lesley Gore]" PERFORMER "Mark Mothersbaugh" FLAGS DCP INDEX 01 00:00:00



Трекер:  [ 09-Июл-2011 00:20 ]

  

Скачать .torrent

Размер .torrent файла 18 KB


Размер: 377 MB
Хэш (hash) релиза: d0b2868bbe5f484a8df2d6a8356556be75f5ece3

Торренты, похожие на Облачно, возможны осадки в виде фрикаделек Cloudy With A Chance Of Meatballs скачать торрент

Форум Название Автор Размер S L Добавлен
Саундтреки к фильмам и мультфильмам (mp3) ·· (Score) Облачно, возможны осадки в виде фрикаделек / Cloudy With A Chance Of Meatballs (by Mark Mothersbaugh) - 2009, MP3, 320 kbps Mos 158685551151 MB 0 0 1326393186

21:33

12-Янв-12

Саундтреки к фильмам и мультфильмам (mp3) ·· (Score) Облачно, возможны осадки в виде фрикаделек / Cloudy with a Chance of Meatballs (Mark Mothersbaugh) - 2009, MP3, VBR V0 (~248 kbps) Phoenix 135570128129 MB 0 0 1292268175

22:22

13-Дек-10

Еще никто не оставлял запись к записи скачать торрент Облачно, возможны осадки в виде фрикаделек Cloudy With A Chance Of Meatballs . Будь первым!

!Обратная связь