Скачать через торрент музыку Trevor Rabin - Gone In 60 Seconds Угнать за 60 секунд - 2000, FLAC бесплатно без регистрации torrent

Если у вас наблюдаются проблемы со скриншотами, переходом по ссылками, скачиванием торрентов - проблемы в блокировщике рекламы AdBlock. #хорошегоДня!


Статистика раздачи
Размер:  157 MB   |    Зарегистрирован:  6 лет 8 месяцев   |    .torrent скачан:  66 раз   |   
Раздают:  1  
   
Загрузка...
 
Автор Сообщение

AqvaGen


Trevor Rabin - Gone In 60 Seconds / Угнать за 60 секунд

Жанр: Score
Год выпуска диска: 2000
Производитель диска: США
Аудио кодек: FLAC
Тип рипа: tracks+.cue
Битрейт аудио: lossless
Продолжительность: 00:29:06

Трэклист:
01. Porche Boost
02. The Last Car
03. Keys To Eleanor
04. 50 Cars
05. Sphinx
06. Bad Man
07. For The Cars
08. Roundabend
09. Meet The Team
10. Memphis Jumps Elle
11. The Throb
12. Bad English
13. Halls Of Dalmorgan
14. Bag Drag
15. Bad Carma
 
Exact Audio Copy V0.99 prebeta 4 from 23. January 2008

EAC extraction logfile from 19. June 2008, 1:11

Trevor Rabin / Gone In 60 Seconds (Score)

Used drive : TSSTcorpDVD-ROM TS-H352C Adapter: 1 ID: 1

Read mode : SecureUtilize accurate stream : YesDefeat audio cache : YesMake use of C2 pointers : No

Read offset correction : 6Overread into Lead-In and Lead-Out : NoFill up missing offset samples with silence : YesDelete leading and trailing silent blocks : NoNull samples used in CRC calculations : YesUsed interface : Installed external ASPI interfaceGap handling : Appended to previous track

Used output format : User Defined EncoderSelected bitrate : 192 kBit/sQuality : HighAdd ID3 tag : NoCommand line compressor : C:\Program Files\FLAC\flac.exeAdditional command line options : -8 -A tukey(0.25) -A gauss(0.1875) -b 4096 -V -T "artist=%a" -T "title=%t" -T "album=%g" -T "date=%y" -T "tracknumber=%n" -T "genre=%m" %s --sector-align

TOC of the extracted CD

Track | Start | Length | Start sector | End sector --------------------------------------------------------- 1 | 0:00.00 | 1:14.07 | 0 | 5556 2 | 1:14.07 | 4:50.00 | 5557 | 27306 3 | 6:04.07 | 1:24.08 | 27307 | 33614 4 | 7:28.15 | 2:58.45 | 33615 | 47009 5 | 10:26.60 | 0:38.17 | 47010 | 49876 6 | 11:05.02 | 1:38.00 | 49877 | 57226 7 | 12:43.02 | 1:32.70 | 57227 | 64196 8 | 14:15.72 | 5:23.20 | 64197 | 88441 9 | 19:39.17 | 1:16.45 | 88442 | 94186 10 | 20:55.62 | 1:42.25 | 94187 | 101861 11 | 22:38.12 | 1:11.65 | 101862 | 107251 12 | 23:50.02 | 1:36.68 | 107252 | 114519 13 | 25:26.70 | 0:55.40 | 114520 | 118684 14 | 26:22.35 | 0:51.07 | 118685 | 122516 15 | 27:13.42 | 1:53.18 | 122517 | 131009

Track 1

Filename N:\Music\Gone In 60 Seconds (Score)\01 - Porsche Boost.wav

Pre-gap length 0:00:02.00

Peak level 98.8 % Track quality 100.0 % Test CRC 1259E85F Copy CRC 1259E85F Copy OK

Track 2

Filename N:\Music\Gone In 60 Seconds (Score)\02 - The Last Car.wav

Pre-gap length 0:00:01.76

Peak level 98.9 % Track quality 100.0 % Test CRC 1BF1F327 Copy CRC 1BF1F327 Copy OK

Track 3

Filename N:\Music\Gone In 60 Seconds (Score)\03 - Keys To Eleanor.wav

Pre-gap length 0:00:01.60

Peak level 98.8 % Track quality 100.0 % Test CRC 9B630B2D Copy CRC 9B630B2D Copy OK

Track 4

Filename N:\Music\Gone In 60 Seconds (Score)\04 - 50 Cars.wav

Pre-gap length 0:00:02.26

Peak level 98.8 % Track quality 100.0 % Test CRC 76B997CF Copy CRC 76B997CF Copy OK

Track 5

Filename N:\Music\Gone In 60 Seconds (Score)\05 - Sphinx.wav

Pre-gap length 0:00:02.13

Peak level 98.8 % Track quality 100.0 % Test CRC F9068C5D Copy CRC F9068C5D Copy OK

Track 6

Filename N:\Music\Gone In 60 Seconds (Score)\06 - Bad Man.wav

Peak level 98.8 % Track quality 100.0 % Test CRC 66616CBD Copy CRC 66616CBD Copy OK

Track 7

Filename N:\Music\Gone In 60 Seconds (Score)\07 - For The Cars.wav

Pre-gap length 0:00:02.46

Peak level 98.8 % Track quality 100.0 % Test CRC C9721C13 Copy CRC C9721C13 Copy OK

Track 8

Filename N:\Music\Gone In 60 Seconds (Score)\08 - Roundabend.wav

Pre-gap length 0:00:01.42

Peak level 98.8 % Track quality 100.0 % Test CRC BED057D8 Copy CRC BED057D8 Copy OK

Track 9

Filename N:\Music\Gone In 60 Seconds (Score)\09 - Meet The Team.wav

Pre-gap length 0:00:01.40

Peak level 98.8 % Track quality 100.0 % Test CRC 4E7DE745 Copy CRC 4E7DE745 Copy OK

Track 10

Filename N:\Music\Gone In 60 Seconds (Score)\10 - Memphis Jumps Elle.wav

Pre-gap length 0:00:03.96

Peak level 98.8 % Track quality 100.0 % Test CRC 6D240BDF Copy CRC 6D240BDF Copy OK

Track 11

Filename N:\Music\Gone In 60 Seconds (Score)\11 - The Throb.wav

Pre-gap length 0:00:01.22

Peak level 98.8 % Track quality 100.0 % Test CRC 5C3577B0 Copy CRC 5C3577B0 Copy OK

Track 12

Filename N:\Music\Gone In 60 Seconds (Score)\12 - Bad English.wav

Pre-gap length 0:00:01.22

Peak level 98.8 % Track quality 100.0 % Test CRC 5AE01F84 Copy CRC 5AE01F84 Copy OK

Track 13

Filename N:\Music\Gone In 60 Seconds (Score)\13 - Halls Of Dalmorgan.wav

Pre-gap length 0:00:01.17

Peak level 98.8 % Track quality 100.0 % Test CRC A124C133 Copy CRC A124C133 Copy OK

Track 14

Filename N:\Music\Gone In 60 Seconds (Score)\14 - Big Drag.wav

Pre-gap length 0:00:01.33

Peak level 98.8 % Track quality 100.0 % Test CRC 13D94335 Copy CRC 13D94335 Copy OK

Track 15

Filename N:\Music\Gone In 60 Seconds (Score)\15 - Bad Carma.wav

Pre-gap length 0:00:01.76

Peak level 98.8 % Track quality 99.9 % Test CRC F49A67C5 Copy CRC F49A67C5 Copy OK

No errors occurred

End of status report
 
REM GENRE SoundtrackREM DATE 2000REM DISCID CF06D20FREM COMMENT "ExactAudioCopy v0.99pb4"PERFORMER "Trevor Rabin"TITLE "Gone In 60 Seconds (Score)"FILE "01 - Porsche Boost.wav" WAVE TRACK 01 AUDIO TITLE "Porsche Boost" PERFORMER "Trevor Rabin" INDEX 01 00:00:00 TRACK 02 AUDIO TITLE "The Last Car" PERFORMER "Trevor Rabin" INDEX 00 01:12:25FILE "02 - The Last Car.wav" WAVE INDEX 01 00:00:00 TRACK 03 AUDIO TITLE "Keys To Eleanor" PERFORMER "Trevor Rabin" INDEX 00 04:48:30FILE "03 - Keys To Eleanor.wav" WAVE INDEX 01 00:00:00 TRACK 04 AUDIO TITLE "50 Cars" PERFORMER "Trevor Rabin" INDEX 00 01:21:63FILE "04 - 50 Cars.wav" WAVE INDEX 01 00:00:00 TRACK 05 AUDIO TITLE "Sphinx" PERFORMER "Trevor Rabin" INDEX 00 02:56:35FILE "05 - Sphinx.wav" WAVE INDEX 01 00:00:00FILE "06 - Bad Man.wav" WAVE TRACK 06 AUDIO TITLE "Bad Man" PERFORMER "Trevor Rabin" INDEX 01 00:00:00 TRACK 07 AUDIO TITLE "For The Cars" PERFORMER "Trevor Rabin" INDEX 00 01:35:40FILE "07 - For The Cars.wav" WAVE INDEX 01 00:00:00 TRACK 08 AUDIO TITLE "Roundabend" PERFORMER "Trevor Rabin" INDEX 00 01:31:38FILE "08 - Roundabend.wav" WAVE INDEX 01 00:00:00 TRACK 09 AUDIO TITLE "Meet The Team" PERFORMER "Trevor Rabin" INDEX 00 05:21:65FILE "09 - Meet The Team.wav" WAVE INDEX 01 00:00:00 TRACK 10 AUDIO TITLE "Memphis Jumps Elle" PERFORMER "Trevor Rabin" INDEX 00 01:12:48FILE "10 - Memphis Jumps Elle.wav" WAVE INDEX 01 00:00:00 TRACK 11 AUDIO TITLE "The Throb" PERFORMER "Trevor Rabin" INDEX 00 01:41:08FILE "11 - The Throb.wav" WAVE INDEX 01 00:00:00 TRACK 12 AUDIO TITLE "Bad English" PERFORMER "Trevor Rabin" INDEX 00 01:10:48FILE "12 - Bad English.wav" WAVE INDEX 01 00:00:00 TRACK 13 AUDIO TITLE "Halls Of Dalmorgan" PERFORMER "Trevor Rabin" INDEX 00 01:35:55FILE "13 - Halls Of Dalmorgan.wav" WAVE INDEX 01 00:00:00 TRACK 14 AUDIO TITLE "Big Drag" PERFORMER "Trevor Rabin" INDEX 00 00:54:15FILE "14 - Big Drag.wav" WAVE INDEX 01 00:00:00 TRACK 15 AUDIO TITLE "Bad Carma" PERFORMER "Trevor Rabin" INDEX 00 00:49:25FILE "15 - Bad Carma.wav" WAVE INDEX 01 00:00:00
01. Porche Boost:
12. Bad English:


Трекер:  [ 03-Янв-2011 07:09 ]

  

Скачать .torrent

Размер .torrent файла 13 KB


Размер: 157 MB
Хэш (hash) релиза: c2f88d2981c20177d35d5e17a83993b5873faa99

Торренты, похожие на Trevor Rabin - Gone In 60 Seconds Угнать за 60 секунд - 2000, FLAC скачать торрент

Форум Название Автор Размер S L Добавлен
Саундтреки к фильмам и мультфильмам (lossless) ·· (Soundtrack) Trevor Rabin & VA - Gone In 60 Seconds / Угнать за 60 секунд OST - 2000, FLAC (tracks+.cue), lossless AqvaGen 380138616363 MB 0 0 1292268518

22:28

13-Дек-10

bot

Топик был перенесен в форум Саундтреки к фильмам и мультфильмам (lossless)

Перенес AqvaGen

Хотите добавить комментарий к записи скачать торрент Trevor Rabin - Gone In 60 Seconds Угнать за 60 секунд - 2000, FLAC

!Обратная связь