Скачать через торрент музыку Ennio Morricone - La Resa Dei Conti - 1966, FLAC бесплатно без регистрации torrent

Если у вас наблюдаются проблемы со скриншотами, переходом по ссылками, скачиванием торрентов - проблемы в блокировщике рекламы AdBlock. #хорошегоДня!


Статистика раздачи
Размер:  256 MB   |    Зарегистрирован:  6 лет 8 месяцев   |    .torrent скачан:  59 раз   |   
Раздают:  1  
   
Загрузка...
 
Автор Сообщение

AqvaGen


Ennio Morricone - La Resa Dei Conti

Жанр: Score
Год выпуска диска: 1966
Аудио кодек: FLAC
Тип рипа: tracks+.cue
Битрейт аудио: lossless
Продолжительность: 51:37
Трэклист:
1. run man run (titoli di testa) (02:49)
2. dopo la condanna (01:42)
3. la resa dei conti (square dance nuziale) (05:08)
4. arriva cuchillo (01:50)
5. coro del mormoni (01:40)
6. la resa dei conti (titoli-ripresa) (02:01)
7. primo deserto (Jonathan Corbett) (01:48)
8. la vedova (il ranch) (02:04)
9. la corrida (01:50)
10. la vedova (01:12)
11. primo deserto (arriva Corbett) (01:48)
12. corri uomo corri (02:48)
13. primo deserto (02:30)
14. secondo deserto (01:23)
15. primo deserto (il morso del serpente) (04:25)
16. la resa dei conti (rosita) (02:22)
17. la resa dei conti (mariachi) (00:41)
18. la resa dei conti (la caccia) (02:37)
19. la resa dei conti (seconda caccia) (02:20)
20. primo deserto (preso nell'imboscata) (00:54)
21. la resa dei conti (01:01)
22. la condanna (01:12)
23. la resa (02:47)
24. run man run (titoli finale (02:45)
X Lossless Decoder version 20080926 (93.3)

XLD extraction logfile from 2008-10-17 19:51:43 +0200

Ennio Morricone / La Resa Dei Conti

Used drive : MATSHITA DVD-R UJ-857 (revision HBEA)

Use cdparanoia mode : YES (CDParanoia III 10.2 engine)
Disable audio cache : OK for the drive with cache less than 2750KB
Make use of C2 pointers : NO
Read offset correction : 102
Max retry count : 100

TOC of the extracted CD
Track | Start | Length | Start sector | End sector
---------------------------------------------------------
1 | 00:00:00 | 02:53:68 | 0 | 13042
2 | 02:53:68 | 01:47:13 | 13043 | 21080
3 | 04:41:06 | 05:12:15 | 21081 | 44495
4 | 09:53:21 | 01:51:47 | 44496 | 52867
5 | 11:44:68 | 01:44:26 | 52868 | 60693
6 | 13:29:19 | 02:03:66 | 60694 | 69984
7 | 15:33:10 | 01:54:54 | 69985 | 78588
8 | 17:27:64 | 02:07:23 | 78589 | 88136
9 | 19:35:12 | 01:54:15 | 88137 | 96701
10 | 21:29:27 | 01:15:68 | 96702 | 102394
11 | 22:45:20 | 01:54:72 | 102395 | 111016
12 | 24:40:17 | 02:51:74 | 111017 | 123915
13 | 27:32:16 | 02:33:30 | 123916 | 135420
14 | 30:05:46 | 01:28:08 | 135421 | 142028
15 | 31:33:54 | 04:28:35 | 142029 | 162163
16 | 36:02:14 | 02:25:32 | 162164 | 173070
17 | 38:27:46 | 00:45:37 | 173071 | 176482
18 | 39:13:08 | 02:43:26 | 176483 | 188733
19 | 41:56:34 | 02:24:13 | 188734 | 199546
20 | 44:20:47 | 00:58:71 | 199547 | 203967
21 | 45:19:43 | 01:06:10 | 203968 | 208927
22 | 46:25:53 | 01:15:53 | 208928 | 214605
23 | 47:41:31 | 02:52:66 | 214606 | 227571
24 | 50:34:22 | 02:46:45 | 227572 | 240066

Track 01
Filename : /Users/kjetil/Music/LZTR/zTEMP/01 Ennio Morricone - Run Man Run (Titoli Di Testa).flac
/Users/kjetil/Music/LZTR/zTEMP/01 Ennio Morricone - Run Man Run (Titoli Di Testa).mp3
CRC32 hash (test run) : E28A6DBC
CRC32 hash : E28A6DBC
CRC32 hash (skip zero) : E124DF77
AccurateRip signature : 27F40977
->Track not present in AccurateRip database.
Statistics
Read error : 0
Skipped (treated as error) : 0
Edge jitter error (maybe fixed) : 0
Atom jitter error (maybe fixed) : 0
Drift error (maybe fixed) : 0
Dropped bytes error (maybe fixed) : 0
Duplicated bytes error (maybe fixed) : 0
Inconsistency in error sectors : 0

Track 02
Filename : /Users/kjetil/Music/LZTR/zTEMP/02 Ennio Morricone - dopo la condanna.flac
/Users/kjetil/Music/LZTR/zTEMP/02 Ennio Morricone - dopo la condanna.mp3
CRC32 hash (test run) : 37264975
CRC32 hash : 37264975
CRC32 hash (skip zero) : A826D689
AccurateRip signature : E56CE419
->Track not present in AccurateRip database.
Statistics
Read error : 0
Skipped (treated as error) : 0
Edge jitter error (maybe fixed) : 0
Atom jitter error (maybe fixed) : 0
Drift error (maybe fixed) : 0
Dropped bytes error (maybe fixed) : 0
Duplicated bytes error (maybe fixed) : 0
Inconsistency in error sectors : 0

Track 03
Filename : /Users/kjetil/Music/LZTR/zTEMP/03 Ennio Morricone - la resa dei conti (square dance nuziale).flac
/Users/kjetil/Music/LZTR/zTEMP/03 Ennio Morricone - la resa dei conti (square dance nuziale).mp3
CRC32 hash (test run) : 931DFF7D
CRC32 hash : 931DFF7D
CRC32 hash (skip zero) : 391F3B40
AccurateRip signature : F5EB0076
->Track not present in AccurateRip database.
Statistics
Read error : 0
Skipped (treated as error) : 0
Edge jitter error (maybe fixed) : 0
Atom jitter error (maybe fixed) : 0
Drift error (maybe fixed) : 0
Dropped bytes error (maybe fixed) : 0
Duplicated bytes error (maybe fixed) : 0
Inconsistency in error sectors : 0

Track 04
Filename : /Users/kjetil/Music/LZTR/zTEMP/04 Ennio Morricone - Arriva Cuchillo.flac
/Users/kjetil/Music/LZTR/zTEMP/04 Ennio Morricone - Arriva Cuchillo.mp3
CRC32 hash (test run) : 8D79D44E
CRC32 hash : 8D79D44E
CRC32 hash (skip zero) : A6058926
AccurateRip signature : 1491A627
->Track not present in AccurateRip database.
Statistics
Read error : 0
Skipped (treated as error) : 0
Edge jitter error (maybe fixed) : 0
Atom jitter error (maybe fixed) : 0
Drift error (maybe fixed) : 0
Dropped bytes error (maybe fixed) : 0
Duplicated bytes error (maybe fixed) : 0
Inconsistency in error sectors : 0

Track 05
Filename : /Users/kjetil/Music/LZTR/zTEMP/05 Ennio Morricone - Coro Del Mormoni.flac
/Users/kjetil/Music/LZTR/zTEMP/05 Ennio Morricone - Coro Del Mormoni.mp3
CRC32 hash (test run) : 57B36D9C
CRC32 hash : 57B36D9C
CRC32 hash (skip zero) : 5150D76D
AccurateRip signature : 30A7DC34
->Track not present in AccurateRip database.
Statistics
Read error : 0
Skipped (treated as error) : 0
Edge jitter error (maybe fixed) : 0
Atom jitter error (maybe fixed) : 0
Drift error (maybe fixed) : 0
Dropped bytes error (maybe fixed) : 0
Duplicated bytes error (maybe fixed) : 0
Inconsistency in error sectors : 0

Track 06
Filename : /Users/kjetil/Music/LZTR/zTEMP/06 Ennio Morricone - La Resa Dei Conti (Titoli-Ripresa).flac
/Users/kjetil/Music/LZTR/zTEMP/06 Ennio Morricone - La Resa Dei Conti (Titoli-Ripresa).mp3
CRC32 hash (test run) : EBBC7929
CRC32 hash : EBBC7929
CRC32 hash (skip zero) : DD52B867
AccurateRip signature : 006C1EA8
->Track not present in AccurateRip database.
Statistics
Read error : 0
Skipped (treated as error) : 0
Edge jitter error (maybe fixed) : 0
Atom jitter error (maybe fixed) : 0
Drift error (maybe fixed) : 0
Dropped bytes error (maybe fixed) : 0
Duplicated bytes error (maybe fixed) : 0
Inconsistency in error sectors : 0

Track 07
Filename : /Users/kjetil/Music/LZTR/zTEMP/07 Ennio Morricone - Primo Deserto (Jonathan Corbett).flac
/Users/kjetil/Music/LZTR/zTEMP/07 Ennio Morricone - Primo Deserto (Jonathan Corbett).mp3
CRC32 hash (test run) : BF9A62F2
CRC32 hash : BF9A62F2
CRC32 hash (skip zero) : B5E8B065
AccurateRip signature : B0960425
->Track not present in AccurateRip database.
Statistics
Read error : 0
Skipped (treated as error) : 0
Edge jitter error (maybe fixed) : 0
Atom jitter error (maybe fixed) : 0
Drift error (maybe fixed) : 0
Dropped bytes error (maybe fixed) : 0
Duplicated bytes error (maybe fixed) : 0
Inconsistency in error sectors : 0

Track 08
Filename : /Users/kjetil/Music/LZTR/zTEMP/08 Ennio Morricone - La Vedova (Il Ranch).flac
/Users/kjetil/Music/LZTR/zTEMP/08 Ennio Morricone - La Vedova (Il Ranch).mp3
CRC32 hash (test run) : 58AE01CA
CRC32 hash : 58AE01CA
CRC32 hash (skip zero) : 5A360A68
AccurateRip signature : C5FE3E9F
->Track not present in AccurateRip database.
Statistics
Read error : 0
Skipped (treated as error) : 0
Edge jitter error (maybe fixed) : 0
Atom jitter error (maybe fixed) : 0
Drift error (maybe fixed) : 0
Dropped bytes error (maybe fixed) : 0
Duplicated bytes error (maybe fixed) : 0
Inconsistency in error sectors : 0

Track 09
Filename : /Users/kjetil/Music/LZTR/zTEMP/09 Ennio Morricone - La Corrida.flac
/Users/kjetil/Music/LZTR/zTEMP/09 Ennio Morricone - La Corrida.mp3
CRC32 hash (test run) : 604D8A7C
CRC32 hash : 604D8A7C
CRC32 hash (skip zero) : D8EA2BB0
AccurateRip signature : 7F6C03AF
->Track not present in AccurateRip database.
Statistics
Read error : 0
Skipped (treated as error) : 0
Edge jitter error (maybe fixed) : 0
Atom jitter error (maybe fixed) : 0
Drift error (maybe fixed) : 0
Dropped bytes error (maybe fixed) : 0
Duplicated bytes error (maybe fixed) : 0
Inconsistency in error sectors : 0

Track 10
Filename : /Users/kjetil/Music/LZTR/zTEMP/10 Ennio Morricone - La Vedova.flac
/Users/kjetil/Music/LZTR/zTEMP/10 Ennio Morricone - La Vedova.mp3
CRC32 hash (test run) : E8340D2F
CRC32 hash : E8340D2F
CRC32 hash (skip zero) : 5E829A35
AccurateRip signature : 0AC24184
->Track not present in AccurateRip database.
Statistics
Read error : 0
Skipped (treated as error) : 0
Edge jitter error (maybe fixed) : 0
Atom jitter error (maybe fixed) : 0
Drift error (maybe fixed) : 0
Dropped bytes error (maybe fixed) : 0
Duplicated bytes error (maybe fixed) : 0
Inconsistency in error sectors : 0

Track 11
Filename : /Users/kjetil/Music/LZTR/zTEMP/11 Ennio Morricone - Primo Deserto (Arriva Corbett).flac
/Users/kjetil/Music/LZTR/zTEMP/11 Ennio Morricone - Primo Deserto (Arriva Corbett).mp3
CRC32 hash (test run) : 240787BD
CRC32 hash : 240787BD
CRC32 hash (skip zero) : 0EBDA202
AccurateRip signature : 4DE3BAE3
->Track not present in AccurateRip database.
Statistics
Read error : 0
Skipped (treated as error) : 0
Edge jitter error (maybe fixed) : 0
Atom jitter error (maybe fixed) : 0
Drift error (maybe fixed) : 0
Dropped bytes error (maybe fixed) : 0
Duplicated bytes error (maybe fixed) : 0
Inconsistency in error sectors : 0

Track 12
Filename : /Users/kjetil/Music/LZTR/zTEMP/12 Ennio Morricone - Corri Uomo Corri.flac
/Users/kjetil/Music/LZTR/zTEMP/12 Ennio Morricone - Corri Uomo Corri.mp3
CRC32 hash (test run) : A7F1780C
CRC32 hash : A7F1780C
CRC32 hash (skip zero) : 4382BCD7
AccurateRip signature : 637958E6
->Track not present in AccurateRip database.
Statistics
Read error : 0
Skipped (treated as error) : 0
Edge jitter error (maybe fixed) : 0
Atom jitter error (maybe fixed) : 0
Drift error (maybe fixed) : 0
Dropped bytes error (maybe fixed) : 0
Duplicated bytes error (maybe fixed) : 0
Inconsistency in error sectors : 0

Track 13
Filename : /Users/kjetil/Music/LZTR/zTEMP/13 Ennio Morricone - Primo Deserto.flac
/Users/kjetil/Music/LZTR/zTEMP/13 Ennio Morricone - Primo Deserto.mp3
CRC32 hash (test run) : 1FC636A3
CRC32 hash : 1FC636A3
CRC32 hash (skip zero) : E411ADC3
AccurateRip signature : C2EA0468
->Track not present in AccurateRip database.
Statistics
Read error : 0
Skipped (treated as error) : 0
Edge jitter error (maybe fixed) : 0
Atom jitter error (maybe fixed) : 0
Drift error (maybe fixed) : 0
Dropped bytes error (maybe fixed) : 0
Duplicated bytes error (maybe fixed) : 0
Inconsistency in error sectors : 0

Track 14
Filename : /Users/kjetil/Music/LZTR/zTEMP/14 Ennio Morricone - Secondo Deserto.flac
/Users/kjetil/Music/LZTR/zTEMP/14 Ennio Morricone - Secondo Deserto.mp3
CRC32 hash (test run) : 51973C48
CRC32 hash : 51973C48
CRC32 hash (skip zero) : 8BD593BE
AccurateRip signature : 8653B575
->Track not present in AccurateRip database.
Statistics
Read error : 0
Skipped (treated as error) : 0
Edge jitter error (maybe fixed) : 0
Atom jitter error (maybe fixed) : 0
Drift error (maybe fixed) : 0
Dropped bytes error (maybe fixed) : 0
Duplicated bytes error (maybe fixed) : 0
Inconsistency in error sectors : 0

Track 15
Filename : /Users/kjetil/Music/LZTR/zTEMP/15 Ennio Morricone - Primo Deserto (Il Morso Del Serpente).flac
/Users/kjetil/Music/LZTR/zTEMP/15 Ennio Morricone - Primo Deserto (Il Morso Del Serpente).mp3
CRC32 hash (test run) : A6B15ABE
CRC32 hash : A6B15ABE
CRC32 hash (skip zero) : EC906E74
AccurateRip signature : 3A6B2B1D
->Track not present in AccurateRip database.
Statistics
Read error : 0
Skipped (treated as error) : 0
Edge jitter error (maybe fixed) : 0
Atom jitter error (maybe fixed) : 0
Drift error (maybe fixed) : 0
Dropped bytes error (maybe fixed) : 0
Duplicated bytes error (maybe fixed) : 0
Inconsistency in error sectors : 0

Track 16
Filename : /Users/kjetil/Music/LZTR/zTEMP/16 Ennio Morricone - La Resa Dei Conti (Rosita).flac
/Users/kjetil/Music/LZTR/zTEMP/16 Ennio Morricone - La Resa Dei Conti (Rosita).mp3
CRC32 hash (test run) : 66EC2261
CRC32 hash : 66EC2261
CRC32 hash (skip zero) : FEAA7DEC
AccurateRip signature : AAF4F2DD
->Track not present in AccurateRip database.
Statistics
Read error : 0
Skipped (treated as error) : 0
Edge jitter error (maybe fixed) : 0
Atom jitter error (maybe fixed) : 0
Drift error (maybe fixed) : 0
Dropped bytes error (maybe fixed) : 0
Duplicated bytes error (maybe fixed) : 0
Inconsistency in error sectors : 0

Track 17
Filename : /Users/kjetil/Music/LZTR/zTEMP/17 Ennio Morricone - La Resa Dei Conti (Mariachi).flac
/Users/kjetil/Music/LZTR/zTEMP/17 Ennio Morricone - La Resa Dei Conti (Mariachi).mp3
CRC32 hash (test run) : 77679A07
CRC32 hash : 77679A07
CRC32 hash (skip zero) : A714B95E
AccurateRip signature : 289B21CB
->Track not present in AccurateRip database.
Statistics
Read error : 0
Skipped (treated as error) : 0
Edge jitter error (maybe fixed) : 0
Atom jitter error (maybe fixed) : 0
Drift error (maybe fixed) : 0
Dropped bytes error (maybe fixed) : 0
Duplicated bytes error (maybe fixed) : 0
Inconsistency in error sectors : 0

Track 18
Filename : /Users/kjetil/Music/LZTR/zTEMP/18 Ennio Morricone - La Resa Dei Conti (La Caccia).flac
/Users/kjetil/Music/LZTR/zTEMP/18 Ennio Morricone - La Resa Dei Conti (La Caccia).mp3
CRC32 hash (test run) : 3CE897FF
CRC32 hash : 3CE897FF
CRC32 hash (skip zero) : DBA1C5CE
AccurateRip signature : D94A778F
->Track not present in AccurateRip database.
Statistics
Read error : 0
Skipped (treated as error) : 0
Edge jitter error (maybe fixed) : 0
Atom jitter error (maybe fixed) : 0
Drift error (maybe fixed) : 0
Dropped bytes error (maybe fixed) : 0
Duplicated bytes error (maybe fixed) : 0
Inconsistency in error sectors : 0

Track 19
Filename : /Users/kjetil/Music/LZTR/zTEMP/19 Ennio Morricone - La Resa Dei Conti (Seconde Caccia).flac
/Users/kjetil/Music/LZTR/zTEMP/19 Ennio Morricone - La Resa Dei Conti (Seconde Caccia).mp3
CRC32 hash (test run) : 3F10D647
CRC32 hash : 3F10D647
CRC32 hash (skip zero) : 35E67DAD
AccurateRip signature : 54F0D24A
->Track not present in AccurateRip database.
Statistics
Read error : 0
Skipped (treated as error) : 0
Edge jitter error (maybe fixed) : 0
Atom jitter error (maybe fixed) : 0
Drift error (maybe fixed) : 0
Dropped bytes error (maybe fixed) : 0
Duplicated bytes error (maybe fixed) : 0
Inconsistency in error sectors : 0

Track 20
Filename : /Users/kjetil/Music/LZTR/zTEMP/20 Ennio Morricone - Primo Deserto (Preso Nell'imboscata).flac
/Users/kjetil/Music/LZTR/zTEMP/20 Ennio Morricone - Primo Deserto (Preso Nell'imboscata).mp3
CRC32 hash (test run) : 17B7A8ED
CRC32 hash : 17B7A8ED
CRC32 hash (skip zero) : 915818AA
AccurateRip signature : 3530A274
->Track not present in AccurateRip database.
Statistics
Read error : 0
Skipped (treated as error) : 0
Edge jitter error (maybe fixed) : 0
Atom jitter error (maybe fixed) : 0
Drift error (maybe fixed) : 0
Dropped bytes error (maybe fixed) : 0
Duplicated bytes error (maybe fixed) : 0
Inconsistency in error sectors : 0

Track 21
Filename : /Users/kjetil/Music/LZTR/zTEMP/21 Ennio Morricone - La Resa Dei Conti.flac
/Users/kjetil/Music/LZTR/zTEMP/21 Ennio Morricone - La Resa Dei Conti.mp3
CRC32 hash (test run) : DDFCB749
CRC32 hash : DDFCB749
CRC32 hash (skip zero) : 4E8A27E6
AccurateRip signature : 2426F7E7
->Track not present in AccurateRip database.
Statistics
Read error : 0
Skipped (treated as error) : 0
Edge jitter error (maybe fixed) : 0
Atom jitter error (maybe fixed) : 0
Drift error (maybe fixed) : 0
Dropped bytes error (maybe fixed) : 0
Duplicated bytes error (maybe fixed) : 0
Inconsistency in error sectors : 0

Track 22
Filename : /Users/kjetil/Music/LZTR/zTEMP/22 Ennio Morricone - La Condanna.flac
/Users/kjetil/Music/LZTR/zTEMP/22 Ennio Morricone - La Condanna.mp3
CRC32 hash (test run) : F1A9BC87
CRC32 hash : F1A9BC87
CRC32 hash (skip zero) : C1ECA11D
AccurateRip signature : 587017F0
->Track not present in AccurateRip database.
Statistics
Read error : 0
Skipped (treated as error) : 0
Edge jitter error (maybe fixed) : 0
Atom jitter error (maybe fixed) : 0
Drift error (maybe fixed) : 0
Dropped bytes error (maybe fixed) : 0
Duplicated bytes error (maybe fixed) : 0
Inconsistency in error sectors : 0

Track 23
Filename : /Users/kjetil/Music/LZTR/zTEMP/23 Ennio Morricone - La Resa.flac
/Users/kjetil/Music/LZTR/zTEMP/23 Ennio Morricone - La Resa.mp3
CRC32 hash (test run) : BD130697
CRC32 hash : BD130697
CRC32 hash (skip zero) : E570E302
AccurateRip signature : FCEB714E
->Track not present in AccurateRip database.
Statistics
Read error : 0
Skipped (treated as error) : 0
Edge jitter error (maybe fixed) : 0
Atom jitter error (maybe fixed) : 0
Drift error (maybe fixed) : 0
Dropped bytes error (maybe fixed) : 0
Duplicated bytes error (maybe fixed) : 0
Inconsistency in error sectors : 0

Track 24
Filename : /Users/kjetil/Music/LZTR/zTEMP/24 Ennio Morricone - Run Man Run (Titoli Finale).flac
/Users/kjetil/Music/LZTR/zTEMP/24 Ennio Morricone - Run Man Run (Titoli Finale).mp3
CRC32 hash (test run) : C7E9C819
CRC32 hash : C7E9C819
CRC32 hash (skip zero) : 5F1E0DEF
AccurateRip signature : 72F836DD
->Track not present in AccurateRip database.
Statistics
Read error : 0
Skipped (treated as error) : 0
Edge jitter error (maybe fixed) : 0
Atom jitter error (maybe fixed) : 0
Drift error (maybe fixed) : 0
Dropped bytes error (maybe fixed) : 0
Duplicated bytes error (maybe fixed) : 0
Inconsistency in error sectors : 0

No errors occurred

End of status report


Трекер:  [ 03-Янв-2011 07:10 ]

  

Скачать .torrent

Размер .torrent файла 12 KB


Размер: 256 MB
Хэш (hash) релиза: 9b53328c83a2d68d3f1268591b3f1898238c5bdd

bot

Топик был перенесен в форум Саундтреки к фильмам и мультфильмам (lossless)

Перенес AqvaGen

Хотите добавить комментарий к записи скачать торрент Ennio Morricone - La Resa Dei Conti - 1966, FLAC

!Обратная связь