Скачать через торрент музыку Waterworld | Водный мир бесплатно без регистрации torrent

Если у вас наблюдаются проблемы со скриншотами, переходом по ссылками, скачиванием торрентов - проблемы в блокировщике рекламы AdBlock. #хорошегоДня!


Статистика раздачи
Размер:  329 MB   |    Зарегистрирован:  6 лет 2 месяца   |    .torrent скачан:  55 раз   |   
Раздают:  1  
   
Загрузка...
 
Автор Сообщение

Galfimbul

avatar Galfimbul


Waterworld | Водный мир


Жанр: Score
Год выпуска диска: 1995
Производитель диска: USA
Аудио кодек: Flac
Тип рипа: tracks+.cue
Битрейт аудио: lossless
Продолжительность: 1:08:37
01. Main Titles
02. Escaping the Smokers
03. The Atoll
04. Prodigal Child
05. Smokers Sighted
06. Swimming
07. The Skyboat
08. National Geographics
09. Speargun
10. The Bubble
11. Helen Frees The Mariner
12. Helen Sews
13. Slide For Life
14. Half An Hour
15. We're Gonna Die
16. Arriving At The Deez
17. Deacon's Speech
18. Haircuts
19. Gills
20. Why Aren't You Rowing?
21. Balloon Flight
22. Dry Land
23. Mariner's Goodbye
24. Main Credits

Exact Audio Copy V0.99 prebeta 5 from 4. May 2009

EAC extraction logfile from 23. November 2009, 13:16

James Newton Howard / Waterworld

Used drive : Optiarc DVD RW AD-7170A Adapter: 0 ID: 0

Read mode : Secure
Utilize accurate stream : Yes
Defeat audio cache : Yes
Make use of C2 pointers : No

Read offset correction : 48
Overread into Lead-In and Lead-Out : No
Fill up missing offset samples with silence : Yes
Delete leading and trailing silent blocks : No
Null samples used in CRC calculations : Yes
Used interface : Native Win32 interface for Win NT & 2000
Gap handling : Appended to previous track

Used output format : User Defined Encoder
Selected bitrate : 320 kBit/s
Quality : High
Add ID3 tag : No
Command line compressor : C:\Program Files\Exact Audio Copy\Flac\flac.exe
Additional command line options : -8 -V -T "ARTIST=%a" -T "TITLE=%t" -T "ALBUM=%g" -T "DATE=%y" -T "TRACKNUMBER=%n" -T "GENRE=%m" -T "COMMENT=EAC FLAC -8" %s

TOC of the extracted CD

Track | Start | Length | Start sector | End sector
---------------------------------------------------------
1 | 0:00.00 | 4:46.25 | 0 | 21474
2 | 4:46.25 | 3:52.15 | 21475 | 38889
3 | 8:38.40 | 1:44.10 | 38890 | 46699
4 | 10:22.50 | 1:57.13 | 46700 | 55487
5 | 12:19.63 | 2:11.72 | 55488 | 65384
6 | 14:31.60 | 4:14.68 | 65385 | 84502
7 | 18:46.53 | 3:57.17 | 84503 | 102294
8 | 22:43.70 | 1:49.03 | 102295 | 110472
9 | 24:32.73 | 1:46.52 | 110473 | 118474
10 | 26:19.50 | 3:25.25 | 118475 | 133874
11 | 29:45.00 | 3:29.20 | 133875 | 149569
12 | 33:14.20 | 0:52.38 | 149570 | 153507
13 | 34:06.58 | 4:53.22 | 153508 | 175504
14 | 39:00.05 | 4:37.70 | 175505 | 196349
15 | 43:38.00 | 2:04.53 | 196350 | 205702
16 | 45:42.53 | 4:29.07 | 205703 | 225884
17 | 50:11.60 | 3:54.30 | 225885 | 243464
18 | 54:06.15 | 1:33.48 | 243465 | 250487
19 | 55:39.63 | 2:01.05 | 250488 | 259567
20 | 57:40.68 | 2:41.15 | 259568 | 271657
21 | 60:22.08 | 0:49.57 | 271658 | 275389
22 | 61:11.65 | 1:50.35 | 275390 | 283674
23 | 63:02.25 | 3:17.08 | 283675 | 298457
24 | 66:19.33 | 2:18.17 | 298458 | 308824

Track 1

Filename D:\ 01. James Newton Howard – Main Titles.wav

Pre-gap length 0:00:02.00

Peak level 99.9 %
Track quality 99.8 %
Test CRC 42621DAB
Copy CRC 42621DAB
Copy OK

Track 2

Filename D:\ 02. James Newton Howard – Escaping the Smokers.wav

Peak level 100.0 %
Track quality 100.0 %
Test CRC 4ACF934B
Copy CRC 4ACF934B
Copy OK

Track 3

Filename D:\ 03. James Newton Howard – The Atoll.wav

Peak level 67.7 %
Track quality 100.0 %
Test CRC 5366B8D5
Copy CRC 5366B8D5
Copy OK

Track 4

Filename D:\ 04. James Newton Howard – Prodigal Child.wav

Peak level 75.1 %
Track quality 100.0 %
Test CRC 514D8012
Copy CRC 514D8012
Copy OK

Track 5

Filename D:\ 05. James Newton Howard – Smokers Sighted.wav

Peak level 91.7 %
Track quality 100.0 %
Test CRC FDD12975
Copy CRC FDD12975
Copy OK

Track 6

Filename D:\ 06. James Newton Howard – Swimming.wav

Peak level 53.1 %
Track quality 100.0 %
Test CRC BCBC33FC
Copy CRC BCBC33FC
Copy OK

Track 7

Filename D:\ 07. James Newton Howard – The Skyboat.wav

Peak level 100.0 %
Track quality 100.0 %
Test CRC 6392B34A
Copy CRC 6392B34A
Copy OK

Track 8

Filename D:\ 08. James Newton Howard – National Geographics.wav

Peak level 25.4 %
Track quality 99.9 %
Test CRC 5EE71622
Copy CRC 5EE71622
Copy OK

Track 9

Filename D:\ 09. James Newton Howard – Speargun.wav

Peak level 67.9 %
Track quality 100.0 %
Test CRC 8DFD95F2
Copy CRC 8DFD95F2
Copy OK

Track 10

Filename D:\ 10. James Newton Howard – The Bubble.wav

Peak level 79.5 %
Track quality 100.0 %
Test CRC A84D8A54
Copy CRC A84D8A54
Copy OK

Track 11

Filename D:\ 11. James Newton Howard – Helen Frees The Mariner.wav

Peak level 99.6 %
Track quality 100.0 %
Test CRC 1A741B44
Copy CRC 1A741B44
Copy OK

Track 12

Filename D:\ 12. James Newton Howard – Helen Sews.wav

Peak level 24.6 %
Track quality 100.0 %
Test CRC CA3A8965
Copy CRC CA3A8965
Copy OK

Track 13

Filename D:\ 13. James Newton Howard – Slide For Life.wav

Peak level 97.7 %
Track quality 100.0 %
Test CRC DE281903
Copy CRC DE281903
Copy OK

Track 14

Filename D:\ 14. James Newton Howard – Half An Hour.wav

Peak level 89.1 %
Track quality 99.9 %
Test CRC EF339F9E
Copy CRC EF339F9E
Copy OK

Track 15

Filename D:\ 15. James Newton Howard – We're Gonna Die.wav

Peak level 21.8 %
Track quality 100.0 %
Test CRC E2169F8F
Copy CRC 77350592
Copy OK

Track 16

Filename D:\ 16. James Newton Howard – Arriving At The Deez.wav

Peak level 99.5 %
Track quality 100.0 %
Test CRC 19C4BC5B
Copy CRC 19C4BC5B
Copy OK

Track 17

Filename D:\ 17. James Newton Howard – Deacon's Speech.wav

Peak level 96.2 %
Track quality 100.0 %
Test CRC 658F09C6
Copy CRC 658F09C6
Copy OK

Track 18

Filename D:\ 18. James Newton Howard – Haircuts.wav

Peak level 43.5 %
Track quality 99.8 %
Test CRC 5B795569
Copy CRC 5B795569
Copy OK

Track 19

Filename D:\ 19. James Newton Howard – Gills.wav

Peak level 99.2 %
Track quality 100.0 %
Test CRC F412BBC2
Copy CRC F412BBC2
Copy OK

Track 20

Filename D:\ 20. James Newton Howard – Why Aren't You Rowing .wav

Peak level 50.3 %
Track quality 100.0 %
Test CRC E2E209EC
Copy CRC E2E209EC
Copy OK

Track 21

Filename D:\ 21. James Newton Howard – Balloon Flight.wav

Peak level 14.0 %
Track quality 100.0 %
Test CRC 70290282
Copy CRC 70290282
Copy OK

Track 22

Filename D:\ 22. James Newton Howard – Dry Land.wav

Peak level 81.6 %
Track quality 100.0 %
Test CRC 435E0FAC
Copy CRC 435E0FAC
Copy OK

Track 23

Filename D:\ 23. James Newton Howard – Mariner's Goodbye.wav

Peak level 16.2 %
Track quality 100.0 %
Test CRC 2621F0A9
Copy CRC 2621F0A9
Copy OK

Track 24

Filename D:\ 24. James Newton Howard – Main Credits.wav

Peak level 72.7 %
Track quality 100.0 %
Test CRC 178CB160
Copy CRC 178CB160
Copy OK

No errors occurred

End of status report



Трекер:  [ 09-Июл-2011 00:27 ]

  

Скачать .torrent

Размер .torrent файла 15 KB


Размер: 329 MB
Хэш (hash) релиза: 731c7d2dcc48d652dcdf0d195dbc43aaf86ec17b

Торренты, похожие на Waterworld | Водный мир скачать торрент

Форум Название Автор Размер S L Добавлен
Саундтреки к фильмам и мультфильмам (mp3) ·· (Score) Водный мир / Waterworld (James Newton Howard) - 1995 [MP3 320 kbps] Sabin 173131015165 MB 0 0 1292266404

21:53

13-Дек-10

Еще никто не оставлял запись к записи скачать торрент Waterworld | Водный мир . Будь первым!

!Обратная связь