Скачать через торрент музыку Хороший, Плохой, Долбанутый Joheunnom Nabbeunnom Isanghannom бесплатно без регистрации torrent

Если у вас наблюдаются проблемы со скриншотами, переходом по ссылками, скачиванием торрентов - проблемы в блокировщике рекламы AdBlock. #хорошегоДня!


Статистика раздачи
Размер:  421 MB   |    Зарегистрирован:  6 лет 2 месяца   |    .torrent скачан:  35 раз   |   
Раздают:  1  
   
Загрузка...
 
Автор Сообщение

Galfimbul

avatar Galfimbul


Хороший, Плохой, Долбанутый / Joheunnom Nabbeunnom Isanghannom

Название альбома: The Good The Bad The Weird
Жанр: Score
Композитор: Dalpalan and Jang Young-Gyu
Год выпуска диска: 2008
Страна-производитель диска: Seoul, South Korea
Издатель (лейбл): CJ Entertainment and Mnet Media
Номер по каталогу: OST-CD-CMDC-8154

Аудио кодек: FLAC (*.flac)
Тип рипа: tracks+.cue
Битрейт аудио: lossless
Продолжительность: 72:28

Источник: собственный рип
Наличие сканов в содержимом раздачи: да
 
01. One map (3:06)02. Manjeui Mae (The Manchurian Hawk) (2:31)03. Ildeungkan (1st Class Room) (1:13)04. Geomeun hwacha (Black Train) (2:26)05. Gaeksil (Passenger Quarters) (2:56)06. Chonggumeong (The Muzzle Of The Gun) (0:43)07. Samakeui jilju (Speeding In Desert) (1:57)08. Hwanheeui doju (Escape Of Joy) (0:56)09. Ggumgguneun Taegu (Dreaming Taegu) (0:37)10. Jumaktalchul 1 (Escape From The Tavern 1) (1:25)11. Jumaktalchul 2 (Escape From The Tavern 2) (0:48)12. Guisijang (Ghost Market) (01:31)13. Changieui hoisang (Reminiscence Of Changi) (1:24)14. Guisijang Blues (Ghost Market Blues) (0:50)15. Guisijang chonggyukjeon (Gunfight At Ghost Market) (1:24)16. Bi naerineun Guisijang (Rainy Ghost Market) (1:00)17. Moraebaram (Wind Of Sand) (1:15)18. Seokyangeui waltz (Waltz Of Sunset) (0:50)19. Yokmangeui jido (Map Of Desire) (1:26)20. Manju lounge (Lounge Of Manchuria) (1:22)21. Ddwieo (Run!) (1:07)22. Jidoreul chataseo (Searching For The Map) (4:31)23. Yokmangeui beolpan (Moor Of Desire) (2:14)24. Don't Let Me Be Misunderstood (composed by Bennie Benjamin and Gloria Coldwell) (3:52)25. Bolero Bolero Bolero (3:01)26. Heuimangeui eondeok (Hill Of Hope) (0:29)27. Nae insaenge dan hanbeon (Only Once In My Life) (2:29)28. Songarak guishin (Finger Chopper) (1:31)29. Samakeui gil (Road In The Desert) (2:20)30. Deo isang naege aegihaji maseo (Don't Tell Me Any More) (2:37)31. Winner takes all (4:01)32. Meari (Echo) (0:38)33. The Good (Bonus Track) (1:20)34. The Bad (Bonus Track) (2:08)35. The Weird (Bonus Track) (3:01)36. The Weird 2 (Bonus Track) (1:56)37. Three Villains(Bonus Track) (1:56)38. Jidoreul chatara (Find The Map) (Bonus Track) (1:16)39. Hwanheeui doju 2 (Escape Of Joy 2) (Bonus Track) (0:42)40. Iyu (Reasons) (Bonus Track) (0:37)
 
Exact Audio Copy V0.99 prebeta 5 from 4. May 2009

EAC extraction logfile from 7. August 2010, 4:10

Dalpalan and Jang Young-Gyu / The Good The Bad The Weird

Used drive : MATSHITAUJ-845D Adapter: 1 ID: 0

Read mode : SecureUtilize accurate stream : YesDefeat audio cache : YesMake use of C2 pointers : No

Read offset correction : 102Overread into Lead-In and Lead-Out : NoFill up missing offset samples with silence : YesDelete leading and trailing silent blocks : NoNull samples used in CRC calculations : YesUsed interface : Installed external ASPI interfaceGap handling : Appended to previous track

Used output format : User Defined EncoderSelected bitrate : 128 kBit/sQuality : HighAdd ID3 tag : NoCommand line compressor : C:\Program Files\Exact Audio Copy\Flac\flac.exeAdditional command line options : -8 -V -T "ARTIST=%a" -T "TITLE=%t" -T "ALBUM=%g" -T "DATE=%y" -T "TRACKNUMBER=%n" -T "GENRE=%m" -T "COMMENT=EAC FLAC -8" %s

TOC of the extracted CD

Track | Start | Length | Start sector | End sector --------------------------------------------------------- 1 | 0:00.00 | 3:07.48 | 0 | 14072 2 | 3:07.48 | 2:32.53 | 14073 | 25525 3 | 5:40.26 | 1:14.61 | 25526 | 31136 4 | 6:55.12 | 2:28.01 | 31137 | 42237 5 | 9:23.13 | 2:58.04 | 42238 | 55591 6 | 12:21.17 | 0:44.71 | 55592 | 58962 7 | 13:06.13 | 1:59.30 | 58963 | 67917 8 | 15:05.43 | 0:58.08 | 67918 | 72275 9 | 16:03.51 | 0:38.58 | 72276 | 75183 10 | 16:42.34 | 0:52.67 | 75184 | 79150 11 | 17:35.26 | 0:49.72 | 79151 | 82897 12 | 18:25.23 | 1:32.69 | 82898 | 89866 13 | 19:58.17 | 1:26.04 | 89867 | 96320 14 | 21:24.21 | 0:52.00 | 96321 | 100220 15 | 22:16.21 | 1:26.15 | 100221 | 106685 16 | 23:42.36 | 1:01.61 | 106686 | 111321 17 | 24:44.22 | 1:16.46 | 111322 | 117067 18 | 26:00.68 | 0:51.37 | 117068 | 120929 19 | 26:52.30 | 1:27.65 | 120930 | 127519 20 | 28:20.20 | 1:24.15 | 127520 | 133834 21 | 29:44.35 | 1:09.31 | 133835 | 139040 22 | 30:53.66 | 4:33.06 | 139041 | 159521 23 | 35:26.72 | 2:15.52 | 159522 | 169698 24 | 37:42.49 | 3:54.00 | 169699 | 187248 25 | 41:36.49 | 3:03.01 | 187249 | 200974 26 | 44:39.50 | 0:31.23 | 200975 | 203322 27 | 45:10.73 | 2:30.49 | 203323 | 214621 28 | 47:41.47 | 1:32.49 | 214622 | 221570 29 | 49:14.21 | 2:21.62 | 221571 | 232207 30 | 51:36.08 | 2:38.45 | 232208 | 244102 31 | 54:14.53 | 4:11.50 | 244103 | 262977 32 | 58:26.28 | 0:39.39 | 262978 | 265941 33 | 59:05.67 | 1:22.17 | 265942 | 272108 34 | 60:28.09 | 2:10.35 | 272109 | 281893 35 | 62:38.44 | 3:02.49 | 281894 | 295592 36 | 65:41.18 | 2:10.56 | 295593 | 305398 37 | 67:51.74 | 1:57.65 | 305399 | 314238 38 | 69:49.64 | 1:17.45 | 314239 | 320058 39 | 71:07.34 | 0:43.70 | 320059 | 323353 40 | 71:51.29 | 0:37.04 | 323354 | 326132

Track 1

Filename D:\The Good The Bad The Weird OST-CD-CMDC-8154\01. Dalpalan and Jang Young-Gyu - One map.wav

Pre-gap length 0:00:02.00

Peak level 100.0 % Track quality 99.9 % Test CRC A36ADCC0 Copy CRC A36ADCC0 Copy OK

Track 2

Filename D:\The Good The Bad The Weird OST-CD-CMDC-8154\02. Dalpalan and Jang Young-Gyu - The Manchurian Hawk.wav

Pre-gap length 0:00:02.00

Peak level 100.0 % Track quality 100.0 % Test CRC 0A58798F Copy CRC 0A58798F Copy OK

Track 3

Filename D:\The Good The Bad The Weird OST-CD-CMDC-8154\03. Dalpalan and Jang Young-Gyu - 1st Class Room.wav

Pre-gap length 0:00:02.00

Peak level 86.2 % Track quality 100.0 % Test CRC 817DA0AE Copy CRC 817DA0AE Copy OK

Track 4

Filename D:\The Good The Bad The Weird OST-CD-CMDC-8154\04. Dalpalan and Jang Young-Gyu - Black Train.wav

Pre-gap length 0:00:02.00

Peak level 100.0 % Track quality 100.0 % Test CRC 92D5C1AC Copy CRC 92D5C1AC Copy OK

Track 5

Filename D:\The Good The Bad The Weird OST-CD-CMDC-8154\05. Dalpalan and Jang Young-Gyu - Passenger Quarters.wav

Pre-gap length 0:00:02.00

Peak level 90.9 % Track quality 100.0 % Test CRC 3FC2C3B6 Copy CRC 3FC2C3B6 Copy OK

Track 6

Filename D:\The Good The Bad The Weird OST-CD-CMDC-8154\06. Dalpalan and Jang Young-Gyu - The Muzzle Of The Gun.wav

Pre-gap length 0:00:02.00

Peak level 100.0 % Track quality 100.0 % Test CRC E4B5E981 Copy CRC E4B5E981 Copy OK

Track 7

Filename D:\The Good The Bad The Weird OST-CD-CMDC-8154\07. Dalpalan and Jang Young-Gyu - Speeding In Desert.wav

Pre-gap length 0:00:02.00

Peak level 100.0 % Track quality 100.0 % Test CRC 090CCB18 Copy CRC 090CCB18 Copy OK

Track 8

Filename D:\The Good The Bad The Weird OST-CD-CMDC-8154\08. Dalpalan and Jang Young-Gyu - Escape Of Joy.wav

Pre-gap length 0:00:02.00

Peak level 100.0 % Track quality 99.8 % Test CRC 7CB24F49 Copy CRC 7CB24F49 Copy OK

Track 9

Filename D:\The Good The Bad The Weird OST-CD-CMDC-8154\09. Dalpalan and Jang Young-Gyu - Dreaming Taegu.wav

Pre-gap length 0:00:02.00

Peak level 44.1 % Track quality 100.0 % Test CRC B56EDAC4 Copy CRC B56EDAC4 Copy OK

Track 10

Filename D:\The Good The Bad The Weird OST-CD-CMDC-8154\10. Dalpalan and Jang Young-Gyu - Escape From The Tavern 1.wav

Pre-gap length 0:00:02.00

Peak level 100.0 % Track quality 100.0 % Test CRC 1CEE1BB0 Copy CRC 1CEE1BB0 Copy OK

Track 11

Filename D:\The Good The Bad The Weird OST-CD-CMDC-8154\11. Dalpalan and Jang Young-Gyu - Escape From The Tavern 2.wav

Pre-gap length 0:00:02.00

Peak level 100.0 % Track quality 100.0 % Test CRC 61C44452 Copy CRC 61C44452 Copy OK

Track 12

Filename D:\The Good The Bad The Weird OST-CD-CMDC-8154\12. Dalpalan and Jang Young-Gyu - Ghost Market.wav

Pre-gap length 0:00:02.00

Peak level 100.0 % Track quality 100.0 % Test CRC 188E5E05 Copy CRC 188E5E05 Copy OK

Track 13

Filename D:\The Good The Bad The Weird OST-CD-CMDC-8154\13. Dalpalan and Jang Young-Gyu - Reminiscence Of Changi.wav

Pre-gap length 0:00:02.00

Peak level 66.6 % Track quality 99.7 % Test CRC 7981666C Copy CRC 7981666C Copy OK

Track 14

Filename D:\The Good The Bad The Weird OST-CD-CMDC-8154\14. Dalpalan and Jang Young-Gyu - Ghost Market Blues.wav

Pre-gap length 0:00:02.00

Peak level 100.0 % Track quality 99.4 % Test CRC 34E35D66 Copy CRC 34E35D66 Copy OK

Track 15

Filename D:\The Good The Bad The Weird OST-CD-CMDC-8154\15. Dalpalan and Jang Young-Gyu - Gunfight At Ghost Market.wav

Pre-gap length 0:00:02.00

Peak level 100.0 % Track quality 100.0 % Test CRC 1E0849CF Copy CRC 1E0849CF Copy OK

Track 16

Filename D:\The Good The Bad The Weird OST-CD-CMDC-8154\16. Dalpalan and Jang Young-Gyu - Rainy Ghost Market.wav

Pre-gap length 0:00:02.00

Peak level 100.0 % Track quality 99.6 % Test CRC 8A429FED Copy CRC 8A429FED Copy OK

Track 17

Filename D:\The Good The Bad The Weird OST-CD-CMDC-8154\17. Dalpalan and Jang Young-Gyu - Wind Of Sand.wav

Pre-gap length 0:00:02.00

Peak level 83.8 % Track quality 99.6 % Test CRC C19F3A56 Copy CRC C19F3A56 Copy OK

Track 18

Filename D:\The Good The Bad The Weird OST-CD-CMDC-8154\18. Dalpalan and Jang Young-Gyu - Waltz Of Sunset.wav

Pre-gap length 0:00:02.00

Peak level 98.4 % Track quality 99.7 % Test CRC 01B3DD1E Copy CRC 01B3DD1E Copy OK

Track 19

Filename D:\The Good The Bad The Weird OST-CD-CMDC-8154\19. Dalpalan and Jang Young-Gyu - Map Of Desire.wav

Pre-gap length 0:00:02.00

Peak level 79.6 % Track quality 99.6 % Test CRC C329B6AF Copy CRC C329B6AF Copy OK

Track 20

Filename D:\The Good The Bad The Weird OST-CD-CMDC-8154\20. Dalpalan and Jang Young-Gyu - Lounge Of Manchuria.wav

Pre-gap length 0:00:02.00

Peak level 67.4 % Track quality 99.5 % Test CRC 95487DDA Copy CRC 95487DDA Copy OK

Track 21

Filename D:\The Good The Bad The Weird OST-CD-CMDC-8154\21. Dalpalan and Jang Young-Gyu - Run!.wav

Pre-gap length 0:00:02.00

Peak level 99.4 % Track quality 99.3 % Test CRC 28066700 Copy CRC 28066700 Copy OK

Track 22

Filename D:\The Good The Bad The Weird OST-CD-CMDC-8154\22. Dalpalan and Jang Young-Gyu - Searching For The Map.wav

Pre-gap length 0:00:02.00

Peak level 100.0 % Track quality 99.8 % Test CRC 5E293126 Copy CRC 5E293126 Copy OK

Track 23

Filename D:\The Good The Bad The Weird OST-CD-CMDC-8154\23. Dalpalan and Jang Young-Gyu - Moor Of Desire.wav

Pre-gap length 0:00:02.00

Peak level 100.0 % Track quality 99.7 % Test CRC FEE067AA Copy CRC FEE067AA Copy OK

Track 24

Filename D:\The Good The Bad The Weird OST-CD-CMDC-8154\24. Dalpalan and Jang Young-Gyu - Don't let me be misunderstood.wav

Pre-gap length 0:00:02.00

Peak level 100.0 % Track quality 99.6 % Test CRC 1CEF7FF2 Copy CRC 1CEF7FF2 Copy OK

Track 25

Filename D:\The Good The Bad The Weird OST-CD-CMDC-8154\25. Dalpalan and Jang Young-Gyu - Bolero Bolero Bolero.wav

Pre-gap length 0:00:02.00

Peak level 100.0 % Track quality 99.6 % Test CRC 2A281F7C Copy CRC 2A281F7C Copy OK

Track 26

Filename D:\The Good The Bad The Weird OST-CD-CMDC-8154\26. Dalpalan and Jang Young-Gyu - Hill Of Hope.wav

Pre-gap length 0:00:02.00

Peak level 75.0 % Track quality 99.0 % Test CRC D37D4CB6 Copy CRC D37D4CB6 Copy OK

Track 27

Filename D:\The Good The Bad The Weird OST-CD-CMDC-8154\27. Dalpalan and Jang Young-Gyu - Only Once In My Life.wav

Pre-gap length 0:00:02.00

Peak level 64.6 % Track quality 99.4 % Test CRC 9491F222 Copy CRC 9491F222 Copy OK

Track 28

Filename D:\The Good The Bad The Weird OST-CD-CMDC-8154\28. Dalpalan and Jang Young-Gyu - Finger Chopper.wav

Pre-gap length 0:00:02.00

Peak level 90.0 % Track quality 99.3 % Test CRC DEA3AB64 Copy CRC DEA3AB64 Copy OK

Track 29

Filename D:\The Good The Bad The Weird OST-CD-CMDC-8154\29. Dalpalan and Jang Young-Gyu - Road In The Desert.wav

Pre-gap length 0:00:02.00

Peak level 100.0 % Track quality 99.4 % Test CRC 90213F7B Copy CRC 90213F7B Copy OK

Track 30

Filename D:\The Good The Bad The Weird OST-CD-CMDC-8154\30. Dalpalan and Jang Young-Gyu - Don't Tell Me Any More.wav

Pre-gap length 0:00:02.00

Peak level 100.0 % Track quality 99.4 % Test CRC 0502CA4F Copy CRC 0502CA4F Copy OK

Track 31

Filename D:\The Good The Bad The Weird OST-CD-CMDC-8154\31. Dalpalan and Jang Young-Gyu - Winner takes all.wav

Pre-gap length 0:00:02.00

Peak level 100.0 % Track quality 99.5 % Test CRC B443B77C Copy CRC B443B77C Copy OK

Track 32

Filename D:\The Good The Bad The Weird OST-CD-CMDC-8154\32. Dalpalan and Jang Young-Gyu - Echo.wav

Pre-gap length 0:00:02.00

Peak level 46.8 % Track quality 99.2 % Test CRC 1F79D77F Copy CRC 1F79D77F Copy OK

Track 33

Filename D:\The Good The Bad The Weird OST-CD-CMDC-8154\33. Dalpalan and Jang Young-Gyu - The Good.wav

Pre-gap length 0:00:02.00

Peak level 100.0 % Track quality 99.4 % Test CRC 62AAE997 Copy CRC 62AAE997 Copy OK

Track 34

Filename D:\The Good The Bad The Weird OST-CD-CMDC-8154\34. Dalpalan and Jang Young-Gyu - The Bad.wav

Pre-gap length 0:00:02.00

Peak level 100.0 % Track quality 99.4 % Test CRC 30532A50 Copy CRC 30532A50 Copy OK

Track 35

Filename D:\The Good The Bad The Weird OST-CD-CMDC-8154\35. Dalpalan and Jang Young-Gyu - The Weird.wav

Pre-gap length 0:00:02.00

Peak level 100.0 % Track quality 99.5 % Test CRC 5420A68A Copy CRC 5420A68A Copy OK

Track 36

Filename D:\The Good The Bad The Weird OST-CD-CMDC-8154\36. Dalpalan and Jang Young-Gyu - The Weird 2.wav

Pre-gap length 0:00:02.00

Peak level 100.0 % Track quality 99.4 % Test CRC 7011A311 Copy CRC 7011A311 Copy OK

Track 37

Filename D:\The Good The Bad The Weird OST-CD-CMDC-8154\37. Dalpalan and Jang Young-Gyu - Three Villians.wav

Pre-gap length 0:00:02.00

Peak level 72.3 % Track quality 99.4 % Test CRC 0918D94D Copy CRC 0918D94D Copy OK

Track 38

Filename D:\The Good The Bad The Weird OST-CD-CMDC-8154\38. Dalpalan and Jang Young-Gyu - Find The Map.wav

Pre-gap length 0:00:02.00

Peak level 100.0 % Track quality 99.3 % Test CRC FE63DACE Copy CRC FE63DACE Copy OK

Track 39

Filename D:\The Good The Bad The Weird OST-CD-CMDC-8154\39. Dalpalan and Jang Young-Gyu - Escape Of Joy 2.wav

Pre-gap length 0:00:02.00

Peak level 58.7 % Track quality 99.1 % Test CRC BDC1414D Copy CRC BDC1414D Copy OK

Track 40

Filename D:\The Good The Bad The Weird OST-CD-CMDC-8154\40. Dalpalan and Jang Young-Gyu - Reasons.wav

Pre-gap length 0:00:02.00

Peak level 40.4 % Track quality 99.2 % Test CRC EB0C7A42 Copy CRC EB0C7A42 Copy OK

No errors occurred

End of status report
 
REM GENRE SoundtrackREM DATE 2008REM DISCID 5810FC28REM COMMENT "ExactAudioCopy v0.99pb5"PERFORMER "Dalpalan and Jang Young-Gyu"TITLE "The Good The Bad The Weird"FILE "01. Dalpalan and Jang Young-Gyu - One map.wav" WAVE TRACK 01 AUDIO TITLE "One map" PERFORMER "Dalpalan and Jang Young-Gyu" INDEX 01 00:00:00 TRACK 02 AUDIO TITLE "The Manchurian Hawk" PERFORMER "Dalpalan and Jang Young-Gyu" INDEX 00 03:05:48FILE "02. Dalpalan and Jang Young-Gyu - The Manchurian Hawk.wav" WAVE INDEX 01 00:00:00 TRACK 03 AUDIO TITLE "1st Class Room" PERFORMER "Dalpalan and Jang Young-Gyu" INDEX 00 02:30:53FILE "03. Dalpalan and Jang Young-Gyu - 1st Class Room.wav" WAVE INDEX 01 00:00:00 TRACK 04 AUDIO TITLE "Black Train" PERFORMER "Dalpalan and Jang Young-Gyu" INDEX 00 01:12:61FILE "04. Dalpalan and Jang Young-Gyu - Black Train.wav" WAVE INDEX 01 00:00:00 TRACK 05 AUDIO TITLE "Passenger Quarters" PERFORMER "Dalpalan and Jang Young-Gyu" INDEX 00 02:26:01FILE "05. Dalpalan and Jang Young-Gyu - Passenger Quarters.wav" WAVE INDEX 01 00:00:00 TRACK 06 AUDIO TITLE "The Muzzle Of The Gun" PERFORMER "Dalpalan and Jang Young-Gyu" INDEX 00 02:56:04FILE "06. Dalpalan and Jang Young-Gyu - The Muzzle Of The Gun.wav" WAVE INDEX 01 00:00:00 TRACK 07 AUDIO TITLE "Speeding In Desert" PERFORMER "Dalpalan and Jang Young-Gyu" INDEX 00 00:42:71FILE "07. Dalpalan and Jang Young-Gyu - Speeding In Desert.wav" WAVE INDEX 01 00:00:00 TRACK 08 AUDIO TITLE "Escape Of Joy" PERFORMER "Dalpalan and Jang Young-Gyu" INDEX 00 01:57:30FILE "08. Dalpalan and Jang Young-Gyu - Escape Of Joy.wav" WAVE INDEX 01 00:00:00 TRACK 09 AUDIO TITLE "Dreaming Taegu" PERFORMER "Dalpalan and Jang Young-Gyu" INDEX 00 00:56:08FILE "09. Dalpalan and Jang Young-Gyu - Dreaming Taegu.wav" WAVE INDEX 01 00:00:00 TRACK 10 AUDIO TITLE "Escape From The Tavern 1" PERFORMER "Dalpalan and Jang Young-Gyu" INDEX 00 00:36:58FILE "10. Dalpalan and Jang Young-Gyu - Escape From The Tavern 1.wav" WAVE INDEX 01 00:00:00 TRACK 11 AUDIO TITLE "Escape From The Tavern 2" PERFORMER "Dalpalan and Jang Young-Gyu" INDEX 00 00:50:67FILE "11. Dalpalan and Jang Young-Gyu - Escape From The Tavern 2.wav" WAVE INDEX 01 00:00:00 TRACK 12 AUDIO TITLE "Ghost Market" PERFORMER "Dalpalan and Jang Young-Gyu" INDEX 00 00:47:72FILE "12. Dalpalan and Jang Young-Gyu - Ghost Market.wav" WAVE INDEX 01 00:00:00 TRACK 13 AUDIO TITLE "Reminiscence Of Changi" PERFORMER "Dalpalan and Jang Young-Gyu" INDEX 00 01:30:69FILE "13. Dalpalan and Jang Young-Gyu - Reminiscence Of Changi.wav" WAVE INDEX 01 00:00:00 TRACK 14 AUDIO TITLE "Ghost Market Blues" PERFORMER "Dalpalan and Jang Young-Gyu" INDEX 00 01:24:04FILE "14. Dalpalan and Jang Young-Gyu - Ghost Market Blues.wav" WAVE INDEX 01 00:00:00 TRACK 15 AUDIO TITLE "Gunfight At Ghost Market" PERFORMER "Dalpalan and Jang Young-Gyu" INDEX 00 00:50:00FILE "15. Dalpalan and Jang Young-Gyu - Gunfight At Ghost Market.wav" WAVE INDEX 01 00:00:00 TRACK 16 AUDIO TITLE "Rainy Ghost Market" PERFORMER "Dalpalan and Jang Young-Gyu" INDEX 00 01:24:15FILE "16. Dalpalan and Jang Young-Gyu - Rainy Ghost Market.wav" WAVE INDEX 01 00:00:00 TRACK 17 AUDIO TITLE "Wind Of Sand" PERFORMER "Dalpalan and Jang Young-Gyu" INDEX 00 00:59:61FILE "17. Dalpalan and Jang Young-Gyu - Wind Of Sand.wav" WAVE INDEX 01 00:00:00 TRACK 18 AUDIO TITLE "Waltz Of Sunset" PERFORMER "Dalpalan and Jang Young-Gyu" INDEX 00 01:14:46FILE "18. Dalpalan and Jang Young-Gyu - Waltz Of Sunset.wav" WAVE INDEX 01 00:00:00 TRACK 19 AUDIO TITLE "Map Of Desire" PERFORMER "Dalpalan and Jang Young-Gyu" INDEX 00 00:49:37FILE "19. Dalpalan and Jang Young-Gyu - Map Of Desire.wav" WAVE INDEX 01 00:00:00 TRACK 20 AUDIO TITLE "Lounge Of Manchuria" PERFORMER "Dalpalan and Jang Young-Gyu" INDEX 00 01:25:65FILE "20. Dalpalan and Jang Young-Gyu - Lounge Of Manchuria.wav" WAVE INDEX 01 00:00:00 TRACK 21 AUDIO TITLE "Run!" PERFORMER "Dalpalan and Jang Young-Gyu" INDEX 00 01:22:15FILE "21. Dalpalan and Jang Young-Gyu - Run!.wav" WAVE INDEX 01 00:00:00 TRACK 22 AUDIO TITLE "Searching For The Map" PERFORMER "Dalpalan and Jang Young-Gyu" INDEX 00 01:07:31FILE "22. Dalpalan and Jang Young-Gyu - Searching For The Map.wav" WAVE INDEX 01 00:00:00 TRACK 23 AUDIO TITLE "Moor Of Desire" PERFORMER "Dalpalan and Jang Young-Gyu" INDEX 00 04:31:06FILE "23. Dalpalan and Jang Young-Gyu - Moor Of Desire.wav" WAVE INDEX 01 00:00:00 TRACK 24 AUDIO TITLE "Don't let me be misunderstood" PERFORMER "Dalpalan and Jang Young-Gyu" INDEX 00 02:13:52FILE "24. Dalpalan and Jang Young-Gyu - Don't let me be misunderstood.wav" WAVE INDEX 01 00:00:00 TRACK 25 AUDIO TITLE "Bolero Bolero Bolero" PERFORMER "Dalpalan and Jang Young-Gyu" INDEX 00 03:52:00FILE "25. Dalpalan and Jang Young-Gyu - Bolero Bolero Bolero.wav" WAVE INDEX 01 00:00:00 TRACK 26 AUDIO TITLE "Hill Of Hope" PERFORMER "Dalpalan and Jang Young-Gyu" INDEX 00 03:01:01FILE "26. Dalpalan and Jang Young-Gyu - Hill Of Hope.wav" WAVE INDEX 01 00:00:00 TRACK 27 AUDIO TITLE "Only Once In My Life" PERFORMER "Dalpalan and Jang Young-Gyu" INDEX 00 00:29:23FILE "27. Dalpalan and Jang Young-Gyu - Only Once In My Life.wav" WAVE INDEX 01 00:00:00 TRACK 28 AUDIO TITLE "Finger Chopper" PERFORMER "Dalpalan and Jang Young-Gyu" INDEX 00 02:28:49FILE "28. Dalpalan and Jang Young-Gyu - Finger Chopper.wav" WAVE INDEX 01 00:00:00 TRACK 29 AUDIO TITLE "Road In The Desert" PERFORMER "Dalpalan and Jang Young-Gyu" INDEX 00 01:30:49FILE "29. Dalpalan and Jang Young-Gyu - Road In The Desert.wav" WAVE INDEX 01 00:00:00 TRACK 30 AUDIO TITLE "Don't Tell Me Any More" PERFORMER "Dalpalan and Jang Young-Gyu" INDEX 00 02:19:62FILE "30. Dalpalan and Jang Young-Gyu - Don't Tell Me Any More.wav" WAVE INDEX 01 00:00:00 TRACK 31 AUDIO TITLE "Winner takes all" PERFORMER "Dalpalan and Jang Young-Gyu" INDEX 00 02:36:45FILE "31. Dalpalan and Jang Young-Gyu - Winner takes all.wav" WAVE INDEX 01 00:00:00 TRACK 32 AUDIO TITLE "Echo" PERFORMER "Dalpalan and Jang Young-Gyu" INDEX 00 04:09:50FILE "32. Dalpalan and Jang Young-Gyu - Echo.wav" WAVE INDEX 01 00:00:00 TRACK 33 AUDIO TITLE "The Good" PERFORMER "Dalpalan and Jang Young-Gyu" INDEX 00 00:37:39FILE "33. Dalpalan and Jang Young-Gyu - The Good.wav" WAVE INDEX 01 00:00:00 TRACK 34 AUDIO TITLE "The Bad" PERFORMER "Dalpalan and Jang Young-Gyu" INDEX 00 01:20:17FILE "34. Dalpalan and Jang Young-Gyu - The Bad.wav" WAVE INDEX 01 00:00:00 TRACK 35 AUDIO TITLE "The Weird" PERFORMER "Dalpalan and Jang Young-Gyu" INDEX 00 02:08:35FILE "35. Dalpalan and Jang Young-Gyu - The Weird.wav" WAVE INDEX 01 00:00:00 TRACK 36 AUDIO TITLE "The Weird 2" PERFORMER "Dalpalan and Jang Young-Gyu" INDEX 00 03:00:49FILE "36. Dalpalan and Jang Young-Gyu - The Weird 2.wav" WAVE INDEX 01 00:00:00 TRACK 37 AUDIO TITLE "Three Villians" PERFORMER "Dalpalan and Jang Young-Gyu" INDEX 00 02:08:56FILE "37. Dalpalan and Jang Young-Gyu - Three Villians.wav" WAVE INDEX 01 00:00:00 TRACK 38 AUDIO TITLE "Find The Map" PERFORMER "Dalpalan and Jang Young-Gyu" INDEX 00 01:55:65FILE "38. Dalpalan and Jang Young-Gyu - Find The Map.wav" WAVE INDEX 01 00:00:00 TRACK 39 AUDIO TITLE "Escape Of Joy 2" PERFORMER "Dalpalan and Jang Young-Gyu" INDEX 00 01:15:45FILE "39. Dalpalan and Jang Young-Gyu - Escape Of Joy 2.wav" WAVE INDEX 01 00:00:00 TRACK 40 AUDIO TITLE "Reasons" PERFORMER "Dalpalan and Jang Young-Gyu" INDEX 00 00:41:70FILE "40. Dalpalan and Jang Young-Gyu - Reasons.wav" WAVE INDEX 01 00:00:00
 
AUDIOCHECKER v2.0 beta (build 457) - by Dester - opdester@freemail.hu~~~~~~~~~~~~~~~~~~~~~~~~~~~~~~~~~~-=== НЕ РЕДАКТИРУЙТЕ ЭТОТ ФАЙЛ! ===-

Путь: ...\The Good The Bad The Weird OST-CD-CMDC-8154

01 -=- 01. Dalpalan and Jang Young-Gyu - One map.flac -=- CDDA (100%)02 -=- 02. Dalpalan and Jang Young-Gyu - The Manchurian Hawk.flac -=- CDDA (100%)03 -=- 03. Dalpalan and Jang Young-Gyu - 1st Class Room.flac -=- CDDA (54%)04 -=- 04. Dalpalan and Jang Young-Gyu - Black Train.flac -=- CDDA (100%)05 -=- 05. Dalpalan and Jang Young-Gyu - Passenger Quarters.flac -=- CDDA (100%)06 -=- 06. Dalpalan and Jang Young-Gyu - The Muzzle Of The Gun.flac -=- CDDA (100%)07 -=- 07. Dalpalan and Jang Young-Gyu - Speeding In Desert.flac -=- CDDA (100%)08 -=- 08. Dalpalan and Jang Young-Gyu - Escape Of Joy.flac -=- CDDA (100%)09 -=- 09. Dalpalan and Jang Young-Gyu - Dreaming Taegu.flac -=- CDDA (99%)10 -=- 10. Dalpalan and Jang Young-Gyu - Escape From The Tavern 1.flac -=- CDDA (100%)11 -=- 11. Dalpalan and Jang Young-Gyu - Escape From The Tavern 2.flac -=- CDDA (100%)12 -=- 12. Dalpalan and Jang Young-Gyu - Ghost Market.flac -=- CDDA (100%)13 -=- 13. Dalpalan and Jang Young-Gyu - Reminiscence Of Changi.flac -=- CDDA (87%)14 -=- 14. Dalpalan and Jang Young-Gyu - Ghost Market Blues.flac -=- CDDA (99%)15 -=- 15. Dalpalan and Jang Young-Gyu - Gunfight At Ghost Market.flac -=- CDDA (100%)16 -=- 16. Dalpalan and Jang Young-Gyu - Rainy Ghost Market.flac -=- CDDA (100%)17 -=- 17. Dalpalan and Jang Young-Gyu - Wind Of Sand.flac -=- CDDA (100%)18 -=- 18. Dalpalan and Jang Young-Gyu - Waltz Of Sunset.flac -=- CDDA (100%)19 -=- 19. Dalpalan and Jang Young-Gyu - Map Of Desire.flac -=- CDDA (100%)20 -=- 20. Dalpalan and Jang Young-Gyu - Lounge Of Manchuria.flac -=- CDDA (100%)21 -=- 21. Dalpalan and Jang Young-Gyu - Run!.flac -=- CDDA (100%)22 -=- 22. Dalpalan and Jang Young-Gyu - Searching For The Map.flac -=- CDDA (100%)23 -=- 23. Dalpalan and Jang Young-Gyu - Moor Of Desire.flac -=- CDDA (100%)24 -=- 24. Dalpalan and Jang Young-Gyu - Don't let me be misunderstood.flac -=- CDDA (100%)25 -=- 25. Dalpalan and Jang Young-Gyu - Bolero Bolero Bolero.flac -=- CDDA (100%)26 -=- 26. Dalpalan and Jang Young-Gyu - Hill Of Hope.flac -=- CDDA (100%)27 -=- 27. Dalpalan and Jang Young-Gyu - Only Once In My Life.flac -=- CDDA (100%)28 -=- 28. Dalpalan and Jang Young-Gyu - Finger Chopper.flac -=- CDDA (100%)29 -=- 29. Dalpalan and Jang Young-Gyu - Road In The Desert.flac -=- CDDA (100%)30 -=- 30. Dalpalan and Jang Young-Gyu - Don't Tell Me Any More.flac -=- CDDA (100%)31 -=- 31. Dalpalan and Jang Young-Gyu - Winner takes all.flac -=- CDDA (100%)32 -=- 32. Dalpalan and Jang Young-Gyu - Echo.flac -=- CDDA (100%)33 -=- 33. Dalpalan and Jang Young-Gyu - The Good.flac -=- CDDA (100%)34 -=- 34. Dalpalan and Jang Young-Gyu - The Bad.flac -=- CDDA (100%)35 -=- 35. Dalpalan and Jang Young-Gyu - The Weird.flac -=- CDDA (100%)36 -=- 36. Dalpalan and Jang Young-Gyu - The Weird 2.flac -=- CDDA (100%)37 -=- 37. Dalpalan and Jang Young-Gyu - Three Villians.flac -=- CDDA (100%)38 -=- 38. Dalpalan and Jang Young-Gyu - Find The Map.flac -=- CDDA (100%)39 -=- 39. Dalpalan and Jang Young-Gyu - Escape Of Joy 2.flac -=- CDDA (100%)40 -=- 40. Dalpalan and Jang Young-Gyu - Reasons.flac -=- CDDA (86%)

Сводка 98,13% CDDA

37445716


Трекер:  [ 09-Июл-2011 00:10 ]

  

Скачать .torrent

Размер .torrent файла 21 KB


Размер: 421 MB
Хэш (hash) релиза: b0fd1feb895395457c9546b086be23c4d52389ef

Торренты, похожие на Хороший, Плохой, Долбанутый Joheunnom Nabbeunnom Isanghannom скачать торрент

Форум Название Автор Размер S L Добавлен
Саундтреки к фильмам и мультфильмам (mp3) ·· (Score) Хороший, плохой, долбанутый / The Good, The Bad, The Weird / Joheunnom nabbeunnom isanghannom (by Dalpalan and Jang Young-gyu) - 2008, MP3, 320 kbps Galfimbul 174231142166 MB 0 0 1364633252

11:47

30-Мар-13

Еще никто не оставлял запись к записи скачать торрент Хороший, Плохой, Долбанутый Joheunnom Nabbeunnom Isanghannom . Будь первым!

!Обратная связь