Скачать через торрент музыку Vladimir Cosma - Les Plus Belles Musiques De Films De Vladimir Cosma бесплатно без регистрации torrent

Если у вас наблюдаются проблемы со скриншотами, переходом по ссылками, скачиванием торрентов - проблемы в блокировщике рекламы AdBlock. #хорошегоДня!


Статистика раздачи
Размер:  739 MB   |    Зарегистрирован:  6 лет 2 месяца   |    .torrent скачан:  53 раза   |   
Раздают:  1  
   
Загрузка...
 
Автор Сообщение

Galfimbul

avatar Galfimbul


Vladimir Cosma - Les Plus Belles Musiques De Films De Vladimir Cosma (2 CD)

Жанр: OST/Pop
Год выпуска диска: 1996
Производитель диска: France
Аудио кодек: FLAC
Тип рипа: image+.cue
Битрейт аудио: lossless
Продолжительность:
Диск 1: 72 мин. 5 сек.
Диск 2: 59 мин. 33 сек.

Трэклист:
01] La gloire de mon pиre
02] L'amour en hйritahe
03] Salut l'artiste
04] La boum - Reality
05] La Vouivre
06] Michel Strogoff - Thиme de Nadia
07] Diva - Promenade sentimentale
08] Diva - La Wally
09] La 7iиme cible - concerto de Berlin
10] L'йtudiante - You call it love
11] La dйrobade
12] Le chвteau de ma mиre - Valse d'Augustine
13] Les fugitifs
14] David Balfour - Thиme de David
15] Le souper - Le congrиs s'amuse
16] Alexandre le bienheureux
17] Sables mouvants
18] Vladimir Cosma Le bal
Exact Audio Copy V0.99 prebeta 4 from 23. January 2008

Отчёт EAC об извлечении, выполненном 20. марта 2009, 8:21

Vladimir Cosma / Vladimir Cosma Vol 1

Дисковод: PIONEER DVD-RW DVR-216D Adapter: 0 ID: 1

Режим чтения : Достоверность
Использование точного потока : Да
Отключение кэша аудио : Да
Использование указателей C2 : Нет

Коррекция смещения при чтении : 96
Способность читать области Lead-in и Lead-out : Нет
Заполнение пропущенных сэмплов тишиной : Да
Удаление блоков с тишиной в начале и конце : Нет
При вычислениях CRC использовались нулевые сэмплы : Да
Интерфейс : Встроенный Win32-интерфейс для Win NT/2000

Выходной формат : Внутренние WAV-операции
Формат сэмплов : 44.100 Гц; 16 бит; стерео

TOC извлечённого CD

Трек | Старт | Длительность | Начальный сектор | Конечный сектор
---------------------------------------------------------------------
1 | 0:00.00 | 3:25.19 | 0 | 15393
2 | 3:25.19 | 4:26.50 | 15394 | 35393
3 | 7:51.69 | 3:05.28 | 35394 | 49296
4 | 10:57.22 | 4:49.22 | 49297 | 70993
5 | 15:46.44 | 4:58.62 | 70994 | 93405
6 | 20:45.31 | 2:45.45 | 93406 | 105825
7 | 23:31.01 | 3:37.42 | 105826 | 122142
8 | 27:08.43 | 3:36.03 | 122143 | 138345
9 | 30:44.46 | 7:05.19 | 138346 | 170239
10 | 37:49.65 | 4:58.26 | 170240 | 192615
11 | 42:48.16 | 5:02.24 | 192616 | 215289
12 | 47:50.40 | 2:55.20 | 215290 | 228434
13 | 50:45.60 | 4:41.57 | 228435 | 249566
14 | 55:27.42 | 3:18.07 | 249567 | 264423
15 | 58:45.49 | 2:54.44 | 264424 | 277517
16 | 61:40.18 | 2:51.22 | 277518 | 290364
17 | 64:31.40 | 4:26.17 | 290365 | 310331
18 | 68:57.57 | 3:07.59 | 310332 | 324415

Характеристики диапазона извлечения и сообщения об ошибках

Выбранный диапазон

Имя файла M:\==LOSSLESS\Vladimir Cosma - Vladimir Cosma\Vladimir Cosma - Vladimir Cosma Vol 1\Vladimir Cosma - Vladimir Cosma Vol 1_1.wav

Пиковый уровень 100.0 %
Качество диапазона 99.9 %
CRC копии 7536A4F9
Копирование... OK

Ошибок не произошло

Конец отчёта
01] Le Grand Blond Avec Une Chaussure Noire
02] L'as Des As
03] La Boum 2 - Your Eyes (Interprйtйe Par Cook Da Books)
04] La Chиvre
05] Les Compиres
06] Le Tйlйphone Rose
07] Pleures Pas La Bouche Pleine (Interprйtйe Par Marino Marini)
08] Un Йlйphant Зa Trompe Йnormйment - Hello Marylin
09] Nous Irons Tous Au Paradis - Sax Brothers
10] Courage Fuyons
11] L'aile Ou La Cuisse
12] Les Aventures De Rabbi Jacob - Le Grand Rabbi
13] La Boum - Go On For Ever (Interprйtйe Par Richard Sanderson)
14] Montparnasse Pondichйry
15] Dracula Pиre & Fils - Dracula Fils
16] La Totale
17] La Moutarde Me Monte Au Nez - Gйnйrique
18] Le Pиre Noлl Est Une Ordure - Destinйe (Interprйtйe Par Guy Marchand)
Exact Audio Copy V0.99 prebeta 4 from 23. January 2008

Отчёт EAC об извлечении, выполненном 20. марта 2009, 8:11

Vladimir Cosma / Les Plus Belles Musiques De Films De Vladimir Cosma Vol. 2

Дисковод: PIONEER DVD-RW DVR-216D Adapter: 0 ID: 1

Режим чтения : Достоверность
Использование точного потока : Да
Отключение кэша аудио : Да
Использование указателей C2 : Нет

Коррекция смещения при чтении : 96
Способность читать области Lead-in и Lead-out : Нет
Заполнение пропущенных сэмплов тишиной : Да
Удаление блоков с тишиной в начале и конце : Нет
При вычислениях CRC использовались нулевые сэмплы : Да
Интерфейс : Встроенный Win32-интерфейс для Win NT/2000

Выходной формат : Внутренние WAV-операции
Формат сэмплов : 44.100 Гц; 16 бит; стерео

TOC извлечённого CD

Трек | Старт | Длительность | Начальный сектор | Конечный сектор
---------------------------------------------------------------------
1 | 0:00.00 | 2:07.59 | 0 | 9583
2 | 2:07.59 | 3:23.44 | 9584 | 24852
3 | 5:31.28 | 4:45.20 | 24853 | 46247
4 | 10:16.48 | 3:45.40 | 46248 | 63162
5 | 14:02.13 | 3:38.20 | 63163 | 79532
6 | 17:40.33 | 2:27.36 | 79533 | 90593
7 | 20:07.69 | 2:53.74 | 90594 | 103642
8 | 23:01.68 | 3:47.03 | 103643 | 120670
9 | 26:48.71 | 4:21.20 | 120671 | 140265
10 | 31:10.16 | 3:41.60 | 140266 | 156900
11 | 34:52.01 | 2:33.11 | 156901 | 168386
12 | 37:25.12 | 2:42.65 | 168387 | 180601
13 | 40:08.02 | 3:48.19 | 180602 | 197720
14 | 43:56.21 | 2:29.37 | 197721 | 208932
15 | 46:25.58 | 2:25.19 | 208933 | 219826
16 | 48:51.02 | 3:13.65 | 219827 | 234366
17 | 52:04.67 | 2:46.49 | 234367 | 246865
18 | 54:51.41 | 4:42.05 | 246866 | 268020

Характеристики диапазона извлечения и сообщения об ошибках

Выбранный диапазон

Имя файла M:\==LOSSLESS\Vladimir Cosma - Vladimir Cosma\Vladimir Cosma - Les Plus Belles Musiques De Films De Vladimir Cosma Vol. 2\Vladimir Cosma - Les Plus Belles Musiques De Films De Vladimir Cosma Vol. 2_1.wav

Пиковый уровень 100.0 %
Качество диапазона 100.0 %
CRC копии 6CEAEC09
Копирование... OK

Ошибок не произошло

Конец отчёта


Трекер:  [ 09-Июл-2011 00:11 ]

  

Скачать .torrent

Размер .torrent файла 16 KB


Размер: 739 MB
Хэш (hash) релиза: c2f26786688a8c7a2220eeebbd51d75ea47ef92a

Еще никто не оставлял запись к записи скачать торрент Vladimir Cosma - Les Plus Belles Musiques De Films De Vladimir Cosma . Будь первым!

!Обратная связь