Скачать через торрент музыку Ryuichi Sakamoto - Merry Christmas Mr. Lawrence Счастливого Рождества, мистер Лоуренс - 1983 бесплатно без регистрации torrent

Если у вас наблюдаются проблемы со скриншотами, переходом по ссылками, скачиванием торрентов - проблемы в блокировщике рекламы AdBlock. #хорошегоДня!


Статистика раздачи
Размер:  191 MB   |    Зарегистрирован:  6 лет 2 месяца   |    .torrent скачан:  38 раз   |   
Раздают:  1  
   
Загрузка...
 
Автор Сообщение

Galfimbul

avatar Galfimbul


Merry Christmas Mr. Lawrence / Счастливого Рождества, мистер Лоуренс

Жанр: Score
Год выпуска диска: 1988
Производитель диска: UK
Аудио кодек: FLAC
Тип рипа: image+.cue
Битрейт аудио: lossless
Продолжительность: 00:40:39
Происxождение рипа: Собственный рип из личной коллекции

Трэклист:
1. Merry Christmas Mr. Lawrence 4:34
2. Batavia 1:18
3. Germination 1:47
4. A Hearty Breakfast 1:21
5. Before The War 2:14
6. The Seed And The Sower 5:00
7. A Brief Encounter 2:23
8. Ride, Ride, Ride (Celliers' Brother's Song) 1:03
9. The Fight 1:29
10. Father Christmas 2:00
11. Dismissed 0:10
12. Assembly 2:16
13. Beyond Reason 2:01
14. Sowing The Seed 1:53
15. 23rd Psalm 2:00
16. Last Regrets 2:40
17. Ride, Ride, Ride (Reprise) 1:04
18. The Seed 1:02
19. Forbidden Colours 4:42
 
Exact Audio Copy V0.99 prebeta 4 from 23. January 2008

Отчёт EAC об извлечении, выполненном 1. июня 2010, 23:09

Ryuichi Sakamoto / Merry Christmas Mr. Lawrence

Дисковод: ASUS DRW-20B1LT Adapter: 4 ID: 0

Режим чтения : ДостоверностьИспользование точного потока : ДаОтключение кэша аудио : ДаИспользование указателей C2 : Нет

Коррекция смещения при чтении : 6Способность читать области Lead-in и Lead-out : НетЗаполнение пропущенных сэмплов тишиной : ДаУдаление блоков с тишиной в начале и конце : НетПри вычислениях CRC использовались нулевые сэмплы : ДаИнтерфейс : Встроенный Win32-интерфейс для Win NT/2000

Выходной формат : Пользовательский кодировщикВыбранный битрейт : 768 kBit/sКачество : ВысокийДобавление ID3-тэга : НетУтилита сжатия : D:\Program Files\Exact Audio Copy\Flac\Flac.exeДополнительные параметры : -8 --delete-input-file -o "D:\CDImage.flac" -V %s

TOC извлечённого CD

Трек | Старт | Длительность | Начальный сектор | Конечный сектор --------------------------------------------------------------------- 1 | 0:00.00 | 4:35.65 | 0 | 20689 2 | 4:35.65 | 1:18.50 | 20690 | 26589 3 | 5:54.40 | 1:49.07 | 26590 | 34771 4 | 7:43.47 | 1:23.55 | 34772 | 41051 5 | 9:07.27 | 2:15.15 | 41052 | 51191 6 | 11:22.42 | 5:02.73 | 51192 | 73914 7 | 16:25.40 | 2:22.55 | 73915 | 84619 8 | 18:48.20 | 1:04.32 | 84620 | 89451 9 | 19:52.52 | 1:30.50 | 89452 | 96251 10 | 21:23.27 | 2:08.05 | 96252 | 105856 11 | 23:31.32 | 0:09.70 | 105857 | 106601 12 | 23:41.27 | 2:17.25 | 106602 | 116901 13 | 25:58.52 | 2:01.05 | 116902 | 125981 14 | 27:59.57 | 1:55.30 | 125982 | 134636 15 | 29:55.12 | 2:02.55 | 134637 | 143841 16 | 31:57.67 | 1:43.53 | 143842 | 151619 17 | 33:41.45 | 1:06.32 | 151620 | 156601 18 | 34:48.02 | 1:04.73 | 156602 | 161474 19 | 35:53.00 | 4:44.00 | 161475 | 182774

Характеристики диапазона извлечения и сообщения об ошибках

Выбранный диапазон

Имя файла D:\Ryuichi Sakamoto - Merry Christmas Mr. Lawrence.wav

Пиковый уровень 100.0 % Качество диапазона 99.9 % CRC теста 5F1C798E CRC копии 5F1C798E Копирование... OK

Ошибок не произошло

AccurateRip: сводка

Трек 1 точное извлечение (доверие 9) [6584BE27]Трек 2 точное извлечение (доверие 9) [39E1F1F8]Трек 3 точное извлечение (доверие 9) [1D0D050A]Трек 4 точное извлечение (доверие 9) [37859359]Трек 5 точное извлечение (доверие 9) [9AC7FEE2]Трек 6 точное извлечение (доверие 9) [514AE84C]Трек 7 точное извлечение (доверие 9) [BE7E0274]Трек 8 точное извлечение (доверие 9) [603CAA7B]Трек 9 точное извлечение (доверие 9) [00830CD7]Трек 10 точное извлечение (доверие 8) [6A7F7FBD]Трек 11 точное извлечение (доверие 9) [4783CA20]Трек 12 точное извлечение (доверие 8) [827B3713]Трек 13 точное извлечение (доверие 9) [937C94B1]Трек 14 точное извлечение (доверие 9) [9EB3F55E]Трек 15 точное извлечение (доверие 8) [E710B56E]Трек 16 точное извлечение (доверие 8) [3083587C]Трек 17 точное извлечение (доверие 9) [F0AF3C7F]Трек 18 точное извлечение (доверие 9) [95A18E53]Трек 19 точное извлечение (доверие 8) [003B9729]

Все треки извлечены точно

Конец отчёта


Трекер:  [ 09-Июл-2011 00:11 ]

  

Скачать .torrent

Размер .torrent файла 31 KB


Размер: 191 MB
Хэш (hash) релиза: ee7f90ccf17c43010d3def3c6d97536c20a8be27

Еще никто не оставлял запись к записи скачать торрент Ryuichi Sakamoto - Merry Christmas Mr. Lawrence Счастливого Рождества, мистер Лоуренс - 1983 . Будь первым!

!Обратная связь