Скачать через торрент музыку Пролетая над гнездом кукушки One Flew Over The Cuckoos Nest бесплатно без регистрации torrent

Если у вас наблюдаются проблемы со скриншотами, переходом по ссылками, скачиванием торрентов - проблемы в блокировщике рекламы AdBlock. #хорошегоДня!


Статистика раздачи
Размер:  234 MB   |    Зарегистрирован:  6 лет 2 месяца   |    .torrent скачан:  55 раз   |   
Раздают:  1  
   
Загрузка...
 
Автор Сообщение

Galfimbul

avatar Galfimbul


Пролетая над гнездом кукушки / One Flew Over The Cuckoo's Nest

Жанр: Score
Композитор: Jack Nitzsche
Год выпуска диска: 1979
Производитель диска: USA
Аудио кодек: FLAC
Тип рипа: tracks+.cue
Битрейт аудио: lossless
Продолжительность: 00:43:58

01 - One Flew Over The Cuckoo's Nest (Opening Theme) (01:29)
02 - Medication Valse (05:24)
03 - Bus Ride To Paradise (04:27)
04 - Cruising (02:23)
05 - Trolling (03:52)
06 - Aloha Los Pescadores (03:07)
07 - Charmaine (06:26)
08 - Play The Game (03:56)
09 - Last Dance (05:30)
10 - Act Of Love (01:19)
11 - Jingle Bells (02:28)
12 - One Flew Over The Cuckoo's Nest (Closing Theme) (03:37)

Источник: what.cd
 
Exact Audio Copy V0.99 prebeta 5 from 4. May 2009

EAC extraction logfile from 24. June 2009, 23:16

Jack Nitzsche / One Flew Over the Cuckoo's Nest

Used drive : HL-DT-STDVD-ROM GDR8163B Adapter: 0 ID: 2

Read mode : SecureUtilize accurate stream : YesDefeat audio cache : YesMake use of C2 pointers : No

Read offset correction : 102Overread into Lead-In and Lead-Out : NoFill up missing offset samples with silence : YesDelete leading and trailing silent blocks : NoNull samples used in CRC calculations : YesUsed interface : Native Win32 interface for Win NT & 2000Gap handling : Appended to previous track

Used output format : User Defined EncoderSelected bitrate : 128 kBit/sQuality : HighAdd ID3 tag : NoCommand line compressor : C:\Archivos de programa\Exact Audio Copy\Flac\flac.exeAdditional command line options : -8 -V -T "ARTIST=%a" -T "TITLE=%t" -T "ALBUM=%g" -T "DATE=%y" -T "TRACKNUMBER=%n" -T "GENRE=%m" -T "COMMENT=EAC FLAC -8" %s

TOC of the extracted CD

Track | Start | Length | Start sector | End sector --------------------------------------------------------- 1 | 0:00.00 | 1:29.27 | 0 | 6701 2 | 1:29.27 | 5:23.68 | 6702 | 30994 3 | 6:53.20 | 4:26.45 | 30995 | 50989 4 | 11:19.65 | 2:23.35 | 50990 | 61749 5 | 13:43.25 | 3:52.35 | 61750 | 79184 6 | 17:35.60 | 3:06.57 | 79185 | 93191 7 | 20:42.42 | 6:26.28 | 93192 | 122169 8 | 27:08.70 | 3:55.57 | 122170 | 139851 9 | 31:04.52 | 5:29.68 | 139852 | 164594 10 | 36:34.45 | 1:19.20 | 164595 | 170539 11 | 37:53.65 | 2:27.47 | 170540 | 181611 12 | 40:21.37 | 3:36.73 | 181612 | 197884

Track 1

Filename G:\One Flew Over The Cuckoo's Nest (1991, FLAC) Jack Nitzsche\01 - One Flew Over the Cuckoo's Nest (opening theme).wav

Pre-gap length 0:00:02.00

Peak level 86.4 % Track quality 100.0 % Test CRC F4C6C055 Copy CRC F4C6C055 Cannot be verified as accurate (confidence 2) [83DAE32F], AccurateRip returned [C8A92E12] Copy OK

Track 2

Filename G:\One Flew Over The Cuckoo's Nest (1991, FLAC) Jack Nitzsche\02 - Medication Valse.wav

Pre-gap length 0:00:00.74

Peak level 78.2 % Track quality 100.0 % Test CRC 1B1A4082 Copy CRC 1B1A4082 Cannot be verified as accurate (confidence 2) [DB667EDB], AccurateRip returned [3952DB9F] Copy OK

Track 3

Filename G:\One Flew Over The Cuckoo's Nest (1991, FLAC) Jack Nitzsche\03 - Bus Ride to Paradise.wav

Pre-gap length 0:00:01.02

Peak level 92.1 % Track quality 100.0 % Test CRC 88BD324F Copy CRC 88BD324F Cannot be verified as accurate (confidence 2) [B12A1E01], AccurateRip returned [CC2A6827] Copy OK

Track 4

Filename G:\One Flew Over The Cuckoo's Nest (1991, FLAC) Jack Nitzsche\04 - Cruising.wav

Pre-gap length 0:00:01.65

Peak level 79.5 % Track quality 99.9 % Test CRC F0EA801F Copy CRC F0EA801F Cannot be verified as accurate (confidence 2) [E3BEB315], AccurateRip returned [4AD76EEB] Copy OK

Track 5

Filename G:\One Flew Over The Cuckoo's Nest (1991, FLAC) Jack Nitzsche\05 - Trolling.wav

Pre-gap length 0:00:02.18

Peak level 78.0 % Track quality 100.0 % Test CRC 8BCA7E6A Copy CRC 8BCA7E6A Cannot be verified as accurate (confidence 2) [0942E122], AccurateRip returned [A16A7063] Copy OK

Track 6

Filename G:\One Flew Over The Cuckoo's Nest (1991, FLAC) Jack Nitzsche\06 - Aloha Los Pescadores.wav

Pre-gap length 0:00:02.02

Peak level 81.2 % Track quality 100.0 % Test CRC EC043BF8 Copy CRC EC043BF8 Cannot be verified as accurate (confidence 2) [5DCA96EF], AccurateRip returned [236FFFF9] Copy OK

Track 7

Filename G:\One Flew Over The Cuckoo's Nest (1991, FLAC) Jack Nitzsche\07 - Charmaine.wav

Pre-gap length 0:00:01.92

Peak level 79.2 % Track quality 100.0 % Test CRC A6120E8F Copy CRC A6120E8F Cannot be verified as accurate (confidence 2) [F7B4269F], AccurateRip returned [6E4FCA2C] Copy OK

Track 8

Filename G:\One Flew Over The Cuckoo's Nest (1991, FLAC) Jack Nitzsche\08 - Play the Game.wav

Pre-gap length 0:00:01.38

Peak level 69.4 % Track quality 99.9 % Test CRC 6383FA20 Copy CRC 6383FA20 Cannot be verified as accurate (confidence 2) [BD2E93FF], AccurateRip returned [FFDD9743] Copy OK

Track 9

Filename G:\One Flew Over The Cuckoo's Nest (1991, FLAC) Jack Nitzsche\09 - Last Dance.wav

Pre-gap length 0:00:02.12

Peak level 69.5 % Track quality 100.0 % Test CRC BFE8911C Copy CRC BFE8911C Cannot be verified as accurate (confidence 2) [40B33B7E], AccurateRip returned [837DD55F] Copy OK

Track 10

Filename G:\One Flew Over The Cuckoo's Nest (1991, FLAC) Jack Nitzsche\10 - Act of Love.wav

Pre-gap length 0:00:02.45

Peak level 43.7 % Track quality 100.0 % Test CRC 2F31EEF6 Copy CRC 2F31EEF6 Cannot be verified as accurate (confidence 2) [D1F07CF1], AccurateRip returned [E20DACB1] Copy OK

Track 11

Filename G:\One Flew Over The Cuckoo's Nest (1991, FLAC) Jack Nitzsche\11 - Jingle Bells.wav

Pre-gap length 0:00:02.56

Peak level 65.6 % Track quality 100.0 % Test CRC EF37FF5B Copy CRC EF37FF5B Cannot be verified as accurate (confidence 2) [2AFB5C9A], AccurateRip returned [8620C250] Copy OK

Track 12

Filename G:\One Flew Over The Cuckoo's Nest (1991, FLAC) Jack Nitzsche\12 - One Flew Over the Cuckoo's Nest (closing theme).wav

Pre-gap length 0:00:02.00

Peak level 87.5 % Track quality 100.0 % Test CRC 5C9C229F Copy CRC 5C9C229F Cannot be verified as accurate (confidence 2) [99AEB917], AccurateRip returned [AED0D211] Copy OK

No tracks could be verified as accurateYou may have a different pressing from the one(s) in the database

No errors occurred

End of status report
 
REM GENRE SoundtrackREM DATE 1991REM DISCID 980A4E0CREM COMMENT "ExactAudioCopy v0.99pb5"PERFORMER "Jack Nitzsche"TITLE "One Flew Over the Cuckoo's Nest"FILE "01 - One Flew Over the Cuckoo's Nest (opening theme).wav" WAVE TRACK 01 AUDIO TITLE "One Flew Over the Cuckoo's Nest (opening theme)" PERFORMER "Jack Nitzsche" INDEX 01 00:00:00 TRACK 02 AUDIO TITLE "Medication Valse" PERFORMER "Jack Nitzsche" INDEX 00 01:28:46FILE "02 - Medication Valse.wav" WAVE INDEX 01 00:00:00 TRACK 03 AUDIO TITLE "Bus Ride to Paradise" PERFORMER "Jack Nitzsche" INDEX 00 05:22:66FILE "03 - Bus Ride to Paradise.wav" WAVE INDEX 01 00:00:00 TRACK 04 AUDIO TITLE "Cruising" PERFORMER "Jack Nitzsche" INDEX 00 04:24:71FILE "04 - Cruising.wav" WAVE INDEX 01 00:00:00 TRACK 05 AUDIO TITLE "Trolling" PERFORMER "Jack Nitzsche" INDEX 00 02:21:21FILE "05 - Trolling.wav" WAVE INDEX 01 00:00:00 TRACK 06 AUDIO TITLE "Aloha Los Pescadores" PERFORMER "Jack Nitzsche" INDEX 00 03:50:33FILE "06 - Aloha Los Pescadores.wav" WAVE INDEX 01 00:00:00 TRACK 07 AUDIO TITLE "Charmaine" PERFORMER "Jack Nitzsche" INDEX 00 03:04:63FILE "07 - Charmaine.wav" WAVE INDEX 01 00:00:00 TRACK 08 AUDIO TITLE "Play the Game" PERFORMER "Jack Nitzsche" INDEX 00 06:24:74FILE "08 - Play the Game.wav" WAVE INDEX 01 00:00:00 TRACK 09 AUDIO TITLE "Last Dance" PERFORMER "Jack Nitzsche" INDEX 00 03:53:48FILE "09 - Last Dance.wav" WAVE INDEX 01 00:00:00 TRACK 10 AUDIO TITLE "Act of Love" PERFORMER "Jack Nitzsche" INDEX 00 05:27:34FILE "10 - Act of Love.wav" WAVE INDEX 01 00:00:00 TRACK 11 AUDIO TITLE "Jingle Bells" PERFORMER "Jack Nitzsche" INDEX 00 01:16:53FILE "11 - Jingle Bells.wav" WAVE INDEX 01 00:00:00 TRACK 12 AUDIO TITLE "One Flew Over the Cuckoo's Nest (closing theme)" PERFORMER "Jack Nitzsche" INDEX 00 02:25:47FILE "12 - One Flew Over the Cuckoo's Nest (closing theme).wav" WAVE INDEX 01 00:00:00



Трекер:  [ 09-Июл-2011 00:12 ]

  

Скачать .torrent

Размер .torrent файла 19 KB


Размер: 234 MB
Хэш (hash) релиза: 6fe7abf0f9f3a5570270f9b84fcbc7169cd2e784

Еще никто не оставлял запись к записи скачать торрент Пролетая над гнездом кукушки One Flew Over The Cuckoos Nest . Будь первым!

!Обратная связь