Скачать через торрент музыку Nino Rota - Film Music - 1993, FLAC бесплатно без регистрации torrent

Если у вас наблюдаются проблемы со скриншотами, переходом по ссылками, скачиванием торрентов - проблемы в блокировщике рекламы AdBlock. #хорошегоДня!


Статистика раздачи
Размер:  246 MB   |    Зарегистрирован:  6 лет 2 месяца   |    .torrent скачан:  50 раз   |   
Раздают:  1  
   
Загрузка...
 
Автор Сообщение

Galfimbul

avatar Galfimbul


Nino Rota - Film Music

Жанр: Score / Compilation
Год выпуска диска: 1993
Аудио кодек: FLAC
Тип рипа: tracks+.cue
Битрейт аудио: lossless
Трэклист:
1. Napoli Milionaria (6:03)
2. The Glass Mountain (4:36)
3. La Dolce Vita (3:33)
4. Sunset Sunrise (2:50)
5. White Nights (Le Notti Bianche) (2:45)
6. War And Peace (Guerra E Pace) (6:29)
7. Romeo And Juliet (3:11)
8. The Leopard (Il Gattopardo) (5:56)
9. Rocco And His Brothers (Rocco E I Suoi Fratelli) (4:46)
10. La Bisbetica Domata (The Taming Of The Shrew) (4:03)
11. Purple Noon (Theme From Plein Soleil ) (3:23)
12. The Godfather (Il Padrino) (4:17)
 
Exact Audio Copy V0.99 prebeta 4 from 23. January 2008

EAC extraction logfile from 3. May 2008, 18:55

Nino Rota / Film Music

Used drive : CD-RW CDR-7S52 Adapter: 2 ID: 0

Read mode : SecureUtilize accurate stream : YesDefeat audio cache : YesMake use of C2 pointers : No

Read offset correction : 6Overread into Lead-In and Lead-Out : NoFill up missing offset samples with silence : YesDelete leading and trailing silent blocks : NoNull samples used in CRC calculations : YesUsed interface : Native Win32 interface for Win NT & 2000Gap handling : Appended to previous track

Used output format : User Defined EncoderSelected bitrate : 768 kBit/sQuality : HighAdd ID3 tag : NoCommand line compressor : E:\Program Files\Exact Audio Copy 2\FLAC\FLAC.EXEAdditional command line options : -8 -V -T "ARTIST=%a" -T "TITLE=%t" -T "ALBUM=%g" -T "DATE=%y" -T "TRACKNUMBER=%n" -T "GENRE=%m" -T "COMMENT=%e" %s -o %d

TOC of the extracted CD

Track | Start | Length | Start sector | End sector --------------------------------------------------------- 1 | 0:00.32 | 6:05.30 | 32 | 27436 2 | 6:05.62 | 4:38.23 | 27437 | 48309 3 | 10:44.10 | 3:35.70 | 48310 | 64504 4 | 14:20.05 | 2:53.27 | 64505 | 77506 5 | 17:13.32 | 2:48.30 | 77507 | 90136 6 | 20:01.62 | 6:34.40 | 90137 | 119726 7 | 26:36.27 | 3:12.15 | 119727 | 134141 8 | 29:48.42 | 5:58.63 | 134142 | 161054 9 | 35:47.30 | 4:49.15 | 161055 | 182744 10 | 40:36.45 | 4:05.17 | 182745 | 201136 11 | 44:41.62 | 3:22.65 | 201137 | 216351 12 | 48:04.52 | 4:22.55 | 216352 | 236056

Track 1

Filename D:\EAC\01 - Napoli Milionaria.wav

Pre-gap length 0:00:02.42

Peak level 88.2 % Track quality 100.0 % Test CRC 3B9DBFBD Copy CRC 3B9DBFBD Cannot be verified as accurate (confidence 2) [9A48C31D], AccurateRip returned [CAF6D751] Copy OK

Track 2

Filename D:\EAC\02 - The Glass Mountain.wav

Peak level 89.1 % Track quality 100.0 % Test CRC 3C7C7A77 Copy CRC 3C7C7A77 Cannot be verified as accurate (confidence 2) [84E5403B], AccurateRip returned [198CC658] Copy OK

Track 3

Filename D:\EAC\03 - La Dolce Vita.wav

Peak level 78.3 % Track quality 100.0 % Test CRC C8A4E8F8 Copy CRC C8A4E8F8 Cannot be verified as accurate (confidence 2) [21B8A7EE], AccurateRip returned [ACFC9DBD] Copy OK

Track 4

Filename D:\EAC\04 - Sunset Sunrise.wav

Peak level 71.6 % Track quality 99.9 % Test CRC B47E51B8 Copy CRC B47E51B8 Cannot be verified as accurate (confidence 2) [786D50FB], AccurateRip returned [33ABB230] Copy OK

Track 5

Filename D:\EAC\05 - White Nights (Le Notti Bianche).wav

Peak level 67.8 % Track quality 100.0 % Test CRC F1F528B0 Copy CRC F1F528B0 Cannot be verified as accurate (confidence 2) [6C4D47F3], AccurateRip returned [62E54C84] Copy OK

Track 6

Filename D:\EAC\06 - War and Peace (Guerra E Pace).wav

Peak level 80.3 % Track quality 100.0 % Test CRC 911ACF81 Copy CRC 911ACF81 Cannot be verified as accurate (confidence 2) [134B280A], AccurateRip returned [1AC5D7B4] Copy OK

Track 7

Filename D:\EAC\07 - Romeo and Juliet (Romeo E Giulietta).wav

Pre-gap length 0:00:01.00

Peak level 73.4 % Track quality 100.0 % Test CRC 93D9AF30 Copy CRC 93D9AF30 Cannot be verified as accurate (confidence 2) [C2C4934F], AccurateRip returned [DAAC89B7] Copy OK

Track 8

Filename D:\EAC\08 - The Leopard (Il Gattopardo).wav

Pre-gap length 0:00:01.00

Peak level 78.8 % Track quality 100.0 % Test CRC F05D8553 Copy CRC F05D8553 Cannot be verified as accurate (confidence 2) [0CC79A4E], AccurateRip returned [F67D2096] Copy OK

Track 9

Filename D:\EAC\09 - Rocco and his Brothers (Rocco E I Suoi Fratelli).wav

Peak level 70.2 % Track quality 99.9 % Test CRC 075E2DE2 Copy CRC 075E2DE2 Cannot be verified as accurate (confidence 2) [B5B71B09], AccurateRip returned [EA3FCAEA] Copy OK

Track 10

Filename D:\EAC\10 - La Bisbetica Domata ( The Taming of the Shrew).wav

Peak level 85.4 % Track quality 100.0 % Test CRC 30194CC3 Copy CRC 30194CC3 Cannot be verified as accurate (confidence 2) [B58AEBD2], AccurateRip returned [F0D62A76] Copy OK

Track 11

Filename D:\EAC\11 - Purple Noon (Theme From Plein Soleil).wav

Peak level 71.6 % Track quality 99.9 % Test CRC AE67553E Copy CRC AE67553E Cannot be verified as accurate (confidence 2) [2A65F423], AccurateRip returned [EA8ABC97] Copy OK

Track 12

Filename D:\EAC\12 - The Godfather (Il Padrino).wav

Peak level 68.4 % Track quality 100.0 % Test CRC 69EF8DD1 Copy CRC 69EF8DD1 Cannot be verified as accurate (confidence 2) [52031B70], AccurateRip returned [FBC25448] Copy OK

No tracks could be verified as accurateYou may have a different pressing from the one(s) in the database

No errors occurred

End of status report


Трекер:  [ 09-Июл-2011 00:12 ]

  

Скачать .torrent

Размер .torrent файла 21 KB


Размер: 246 MB
Хэш (hash) релиза: 68e2de3d477b92685c27882173191ba450248231

Еще никто не оставлял запись к записи скачать торрент Nino Rota - Film Music - 1993, FLAC . Будь первым!

!Обратная связь