Скачать через торрент музыку Nino Rota - Gold Edition бесплатно без регистрации torrent

Если у вас наблюдаются проблемы со скриншотами, переходом по ссылками, скачиванием торрентов - проблемы в блокировщике рекламы AdBlock. #хорошегоДня!


Статистика раздачи
Размер:  949 MB   |    Зарегистрирован:  6 лет 11 месяцев   |    .torrent скачан:  70 раз   |   
Раздают:  1  
   
Загрузка...
 
Автор Сообщение

AqvaGen


Nino Rota - Gold Edition

Жанр: Score / Compilation
Год выпуска диска: 2009
Аудио кодек: WAVPack
Тип рипа: image+.cue
Битрейт аудио: lossless
Продолжительность: 3:13:19
01. Vivere In Pace [7:54]
02. Sotto Il Sole Di Roma [7:33]
03. Fuga In Francia [3:40]
04. Senza Pieta' [6:12]
05. E' Primavera [4:20]
06. The Glass Mountain [4:39]
07. Lo Sceicco Bianco [2:35]
08. I Vitelloni [2:13]
09. La Strada [3:31]
10. Accadde Al Penitenziario [3:27]
11. Il Bidone [3:16]
12. Un Eroe Dei Nostri Tempi [1:26]
13. Guerra E Pace [6:34]
14. Le Notti Bianche [2:49]
15. Le Notti Di Cabiria [4:40]
16. Plein Soleil [3:23]
01. La Dolce Vita [3:36]
02. Rocco e i Suoi Fratelli (Terra Lontana, Valzer) [2:46]
03. Il Brigante (Fuga Disperata - Finale) [5:35]
04. Cronache di un Convento [1:45]
05. Boccaccio '70 Le Tentazioni del Dottor Antonio (Bevete Più Latte) [4:06]
06. Boccaccio '70 Il Lavoro (Radiolina) [4:55]
07. Il Gattopardo (Titoli di Testa - Viaggio a Donnafugata) [8:19]
08. Otto e 1/2 (La Passerella d'Addio) [5:16]
09. Il Giornalino di GianBurrasca (GianBurrasca, Charleston) [2:09]
10. Giulietta degli Spiriti (Amore per Tutti) [2:00]
11. Spara Forte, Più Forte... Non Capisco! (Raquel) [3:55]
12. La Bisbetica Domata [4:05]
13. Tre Passi nel Delirio (Toby Dammit) [3:16]
14. Romeo e Giulietta (Romeo and Juliet) [3:12]
15. Fellini's Satyricon (La Cena di Trimalcione) [2:12]
16. I Clowns [5:30]
01. Il Padrino (The Godfather) [4:20]
02. Fellini's Roma (Aria di Roma, new edit) [5:29]
03. Fellini's Roma (Ecclesiastical Fashion Show) [4:32]
04. Amarcord [2:05]
05. Sunset Sunrise [2:53]
06. Film d'Amore e d'Anarchia (Canzone Arrabbiata, strum.) [2:34]
07. Il Padrino Parte II (Theme from The Godfather Part II) [3:39]
08. The Abdication [1:29]
09. Alle Origini della Mafia (E così sia, strum.) [3:04]
10. Il Casanova di Federico Fellini (Venezia, Venaga, Venusia) [3:42]
11. Il Furto Della Gioconda [2:08]
12. Prova D'orchestra [4:01]
13. Romeo e Giulietta (Bonus Track) [3:10]
14. Il Casanova di Federico Fellini (L'Uccello Magico) [2:24]
15. La Vita di Maria (Prologo) [6:29]
16. Napoli Milionaria (Live In Tokyo) [3:37]
17. Kay (Live In Tokyo) [3:01]
18. Guardando Il Fuji-yama (Live In Tokyo) [3:54]
 
Exact Audio Copy V0.99 prebeta 4 from 23. January 2008

EAC extraction logfile from 1. July 2009, 0:12

Nino Rota / Nino Rota Gold Edition (CD1)

Used drive : LITE-ON DVDRW SHW-1635S Adapter: 1 ID: 0

Read mode : SecureUtilize accurate stream : YesDefeat audio cache : YesMake use of C2 pointers : No

Read offset correction : 6Overread into Lead-In and Lead-Out : NoFill up missing offset samples with silence : YesDelete leading and trailing silent blocks : NoNull samples used in CRC calculations : YesUsed interface : Installed external ASPI interface

Used output format : Internal WAV RoutinesSample format : 44.100 Hz; 16 Bit; StereoUse compression offset : 6

TOC of the extracted CD

Track | Start | Length | Start sector | End sector --------------------------------------------------------- 1 | 0:00.00 | 7:54.01 | 0 | 35550 2 | 7:54.01 | 7:32.42 | 35551 | 69492 3 | 15:26.43 | 3:39.73 | 69493 | 85990 4 | 19:06.41 | 6:12.17 | 85991 | 113907 5 | 25:18.58 | 4:20.24 | 113908 | 133431 6 | 29:39.07 | 4:38.39 | 133432 | 154320 7 | 34:17.46 | 2:35.05 | 154321 | 165950 8 | 36:52.51 | 2:12.66 | 165951 | 175916 9 | 39:05.42 | 3:30.59 | 175917 | 191725 10 | 42:36.26 | 3:27.08 | 191726 | 207258 11 | 46:03.34 | 3:16.32 | 207259 | 221990 12 | 49:19.66 | 1:25.73 | 221991 | 228438 13 | 50:45.64 | 6:33.74 | 228439 | 257987 14 | 57:19.63 | 2:48.50 | 257988 | 270637 15 | 60:08.38 | 4:40.35 | 270638 | 291672 16 | 64:48.73 | 3:22.45 | 291673 | 306867

Range status and errors

Selected range

Filename E:\Nino Rota - Gold Edition\Nino Rota Gold Edition (CD1).wav

Peak level 100.0 % Range quality 100.0 % Test CRC D3759846 Copy CRC D3759846 Copy OK

No errors occurred

End of status report
 
Exact Audio Copy V0.99 prebeta 4 from 23. January 2008

EAC extraction logfile from 1. July 2009, 13:56

Nino Rota / Nino Rota Gold Edition (CD2)

Used drive : LITE-ON DVDRW SHW-1635S Adapter: 1 ID: 0

Read mode : SecureUtilize accurate stream : YesDefeat audio cache : YesMake use of C2 pointers : No

Read offset correction : 6Overread into Lead-In and Lead-Out : NoFill up missing offset samples with silence : YesDelete leading and trailing silent blocks : NoNull samples used in CRC calculations : YesUsed interface : Installed external ASPI interface

Used output format : Internal WAV RoutinesSample format : 44.100 Hz; 16 Bit; StereoUse compression offset : 6

TOC of the extracted CD

Track | Start | Length | Start sector | End sector --------------------------------------------------------- 1 | 0:00.00 | 3:35.71 | 0 | 16195 2 | 3:35.71 | 2:45.41 | 16196 | 28611 3 | 6:21.37 | 5:34.60 | 28612 | 53721 4 | 11:56.22 | 1:45.09 | 53722 | 61605 5 | 13:41.31 | 4:05.46 | 61606 | 80026 6 | 17:47.02 | 4:54.56 | 80027 | 102132 7 | 22:41.58 | 8:19.36 | 102133 | 139593 8 | 31:01.19 | 5:15.67 | 139594 | 163285 9 | 36:17.11 | 2:08.55 | 163286 | 172940 10 | 38:25.66 | 2:00.19 | 172941 | 181959 11 | 40:26.10 | 3:55.07 | 181960 | 199591 12 | 44:21.17 | 4:04.72 | 199592 | 217963 13 | 48:26.14 | 3:15.52 | 217964 | 232640 14 | 51:41.66 | 3:11.38 | 232641 | 247003 15 | 54:53.29 | 2:11.42 | 247004 | 256870 16 | 57:04.71 | 5:29.42 | 256871 | 281587

Range status and errors

Selected range

Filename E:\Nino Rota - Gold Edition\Nino Rota Gold Edition (CD2).wav

Peak level 100.0 % Range quality 100.0 % Test CRC AC01C225 Copy CRC AC01C225 Copy OK

No errors occurred

End of status report
 
Exact Audio Copy V0.99 prebeta 4 from 23. January 2008

EAC extraction logfile from 1. July 2009, 15:27

Nino Rota / Nino Rota Gold Edition (CD3)

Used drive : LITE-ON DVDRW SHW-1635S Adapter: 1 ID: 0

Read mode : SecureUtilize accurate stream : YesDefeat audio cache : YesMake use of C2 pointers : No

Read offset correction : 6Overread into Lead-In and Lead-Out : NoFill up missing offset samples with silence : YesDelete leading and trailing silent blocks : NoNull samples used in CRC calculations : YesUsed interface : Installed external ASPI interface

Used output format : Internal WAV RoutinesSample format : 44.100 Hz; 16 Bit; StereoUse compression offset : 6

TOC of the extracted CD

Track | Start | Length | Start sector | End sector --------------------------------------------------------- 1 | 0:00.00 | 4:20.02 | 0 | 19501 2 | 4:20.02 | 5:29.11 | 19502 | 44187 3 | 9:49.13 | 4:31.62 | 44188 | 64574 4 | 14:21.00 | 2:05.11 | 64575 | 73960 5 | 16:26.11 | 2:53.35 | 73961 | 86970 6 | 19:19.46 | 2:34.06 | 86971 | 98526 7 | 21:53.52 | 3:39.15 | 98527 | 114966 8 | 25:32.67 | 1:28.69 | 114967 | 121635 9 | 27:01.61 | 3:03.52 | 121636 | 135412 10 | 30:05.38 | 3:42.29 | 135413 | 152091 11 | 33:47.67 | 2:07.72 | 152092 | 161688 12 | 35:55.64 | 4:00.51 | 161689 | 179739 13 | 39:56.40 | 3:09.71 | 179740 | 193985 14 | 43:06.36 | 2:24.37 | 193986 | 204822 15 | 45:30.73 | 6:28.51 | 204823 | 233973 16 | 51:59.49 | 3:37.36 | 233974 | 250284 17 | 55:37.10 | 3:01.03 | 250285 | 263862 18 | 58:38.13 | 3:54.19 | 263863 | 281431

Range status and errors

Selected range

Filename E:\Nino Rota - Gold Edition\Nino Rota Gold Edition (CD3).wav

Peak level 95.4 % Range quality 100.0 % Test CRC 23016AED Copy CRC 23016AED Copy OK

No errors occurred

End of status report


Трекер:  [ 30-Дек-2010 10:39 ]

  

Скачать .torrent

Размер .torrent файла 20 KB


Размер: 949 MB
Хэш (hash) релиза: 25ec7dc3bddedd84ae0fdd9248dcefc67e76c1f9

bot

Топик был перенесен в форум Саундтреки к фильмам и мультфильмам (lossless)

Перенес AqvaGen

Хотите добавить комментарий к записи скачать торрент Nino Rota - Gold Edition

!Обратная связь