Скачать через торрент музыку Kate & Leopold | Кейт и Лео бесплатно без регистрации torrent

Если у вас наблюдаются проблемы со скриншотами, переходом по ссылками, скачиванием торрентов - проблемы в блокировщике рекламы AdBlock. #хорошегоДня!


Статистика раздачи
Размер:  216 MB   |    Зарегистрирован:  6 лет 2 месяца   |    .torrent скачан:  37 раз   |   
Раздают:  1  
   
Загрузка...
 
Автор Сообщение

Galfimbul

avatar Galfimbul


Kate & Leopold | Кейт и Лео
Жанр: Score
Год выпуска диска: 2001
Производитель диска: USA
Аудио кодек: FLAC
Тип рипа: image+.cue
Битрейт аудио: lossless
Продолжительность: 42:01
Источник: ed2k
01. A Clock in New York
02. I Want Him Resplendent
03. Leopold Chases Stuart to Brooklyn
04. That Was Your Best?
05. Let's Go!
06. Leopold Sees the Completed Bridge
07. You Did So Great (Kate's Theme)
08. Galloping
09. Dearest Kate...
10. Prolixin/Leopold & Charlie Buy Flowers
11. Charlie Wins Patrice, Leopold Wins Kate
12. Secret Drawer
13. Time for Bed
14. Charlie Realizes Leopold Was for Real
15. Kate Goes to the Awards
16. Kate Sees the Pictures - 'I Have to Go'
17. You Have to Cross the Girder
18. Back in 1876 - Waltz
19. Jula Bell - Back Where I Belong
20. Sting - Until...

 
EAC extraction logfile from 9. December 2009, 21:18 for CDRolfe Kent / Kate & Leopold (halcon)

Used drive : HL-DT-STDVDRAM GSA-4167B Adapter: 0 ID: 1Read mode : Secure with NO C2, accurate stream, disable cacheRead offset correction : 667Overread into Lead-In and Lead-Out : No

Used output format : Internal WAV Routines 44.100 Hz; 16 Bit; Stereo

Other options : Fill up missing offset samples with silence : Yes Delete leading and trailing silent blocks : No Native Win32 interface for Win NT & 2000

Range status and errorsSelected range Filename D:\digit\Rolfe Kent - Kate & Leopold (halcon).wav

Peak level 99.8 % Range quality 100.0 % CRC 7207D5DF Copy OK

No errors occured

End of status report

 
REM DISCID 1A09D914REM COMMENT "ExactAudioCopy v0.95b4"PERFORMER "Rolfe Kent"TITLE "Kate & Leopold (halcon)"FILE "Rolfe Kent - Kate & Leopold (halcon).wav" WAVE TRACK 01 AUDIO TITLE "A Clock in New York" PERFORMER "Rolfe Kent" INDEX 01 00:00:00 TRACK 02 AUDIO TITLE "I Want Him Resplendent" PERFORMER "Rolfe Kent" INDEX 01 01:26:36 TRACK 03 AUDIO TITLE "Leopold Chases Stuart to Brooklyn" PERFORMER "Rolfe Kent" INDEX 01 02:52:18 TRACK 04 AUDIO TITLE "That Was Your Best?" PERFORMER "Rolfe Kent" INDEX 01 04:46:52 TRACK 05 AUDIO TITLE "Let's Go!" PERFORMER "Rolfe Kent" INDEX 01 06:04:29 TRACK 06 AUDIO TITLE "Leopold Sees the Completed Bridge" PERFORMER "Rolfe Kent" INDEX 01 09:07:22 TRACK 07 AUDIO TITLE "You Did So Great (Kate's Theme)" PERFORMER "Rolfe Kent" INDEX 01 09:56:37 TRACK 08 AUDIO TITLE "Galloping" PERFORMER "Rolfe Kent" INDEX 01 11:14:50 TRACK 09 AUDIO TITLE "Dearest Kate..." PERFORMER "Rolfe Kent" INDEX 01 12:35:71 TRACK 10 AUDIO TITLE "Prolixin/Leopold & Charlie Buy Flowers" PERFORMER "Rolfe Kent" INDEX 01 14:49:67 TRACK 11 AUDIO TITLE "Charlie Wins Patrice, Leopold Wins Kate" PERFORMER "Rolfe Kent" INDEX 01 17:10:28 TRACK 12 AUDIO TITLE "Secret Drawer" PERFORMER "Rolfe Kent" INDEX 01 20:51:38 TRACK 13 AUDIO TITLE "Time for Bed" PERFORMER "Rolfe Kent" INDEX 01 22:52:69 TRACK 14 AUDIO TITLE "Charlie Realizes Leopold Was for Real" PERFORMER "Rolfe Kent" INDEX 01 25:07:19 TRACK 15 AUDIO TITLE "Kate Goes to the Awards" PERFORMER "Rolfe Kent" INDEX 01 26:38:23 TRACK 16 AUDIO TITLE "Kate Sees the Pictures - 'I Have to Go'" PERFORMER "Rolfe Kent" INDEX 01 29:02:48 TRACK 17 AUDIO TITLE "You Have to Cross the Girder" PERFORMER "Rolfe Kent" INDEX 01 31:56:35 TRACK 18 AUDIO TITLE "Back in 1876 - Waltz" PERFORMER "Rolfe Kent" INDEX 01 33:47:73 TRACK 19 AUDIO TITLE "Back Where I Belong" PERFORMER "Rolfe Kent" INDEX 01 36:00:53 TRACK 20 AUDIO TITLE "Until..." PERFORMER "Rolfe Kent" INDEX 01 38:49:65


Трекер:  [ 09-Июл-2011 00:13 ]

  

Скачать .torrent

Размер .torrent файла 17 KB


Размер: 216 MB
Хэш (hash) релиза: 9b1424cd8215f17918e59b0510784b17264175e0

Еще никто не оставлял запись к записи скачать торрент Kate & Leopold | Кейт и Лео . Будь первым!

!Обратная связь