Скачать через торрент музыку The Doors бесплатно без регистрации torrent

Если у вас наблюдаются проблемы со скриншотами, переходом по ссылками, скачиванием торрентов - проблемы в блокировщике рекламы AdBlock. #хорошегоДня!


Статистика раздачи
Размер:  408 MB   |    Зарегистрирован:  6 лет 2 месяца   |    .torrent скачан:  60 раз   |   
Раздают:  1  
   
Загрузка...
 
Автор Сообщение

Galfimbul

avatar Galfimbul


The Doors (An Oliver Stone Film)

Жанр: Soundtrack
Год выпуска диска: 1991
Производитель диска: USA
Аудио кодек: FLAC
Тип рипа: tracks+.cue
Битрейт аудио: lossless
Продолжительность: 72:39
Tracks:
01 (01:06) Jim Morrison - The Movie
02 (07:01) The Doors - Riders On The Storm
03 (02:49) The Doors - Love Street
04 (02:28) The Doors - Break On Through
05 (11:42) The Doors - The End
06 (07:06) The Doors - Light My Fire
07 (02:55) Jim Morrison - Ghost Song
08 (05:21) The Doors - Roadhouse Blues
09 (07:08) The Velvet Underground & Nico - Heroin
10 (02:32) Carl Orff - Carmina Burana Introduction
11 (01:34) Jim Morrison - Stoned Immaculate
12 (10:57) The Doors - When The Music's Over
13 (02:12) Jim Morrison - The Severed Garden (Adagio)
14 (07:48) The Doors - L.A. Woman
 
EAC extraction logfile from 22. September 2007, 23:29 for CDVarious / The Doors - Original Soundtrack

Used drive : CD-R/RW 52X24X52X Adapter: 1 ID: 1Read mode : Secure with NO C2, accurate stream, disable cacheRead offset correction : 97Overread into Lead-In and Lead-Out : No

Used output format : Internal WAV Routines 44.100 Hz; 16 Bit; Stereo

Other options : Fill up missing offset samples with silence : Yes Delete leading and trailing silent blocks : No Native Win32 interface for Win NT & 2000

Track 1 Filename: 01 - Jim Morrison - The Movie.wav

Peak level 59.7 % Track quality 100.0 % Test CRC EF7EB7B0 Copy CRC EF7EB7B0 Copy OK

Track 2 Filename: 02 - The Doors - Riders On The Storm.wav

Peak level 83.2 % Track quality 100.0 % Test CRC 8EC384E3 Copy CRC 8EC384E3 Copy OK

Track 3 Filename: 03 - The Doors - Love Street.wav

Peak level 86.3 % Track quality 100.0 % Test CRC 93198E5C Copy CRC 93198E5C Copy OK

Track 4 Filename: 04 - The Doors - Break On Through.wav

Peak level 74.2 % Track quality 100.0 % Test CRC DAD7F443 Copy CRC DAD7F443 Copy OK

Track 5 Filename: 05 - The Doors - The End.wav

Peak level 68.6 % Track quality 100.0 % Test CRC B3D1CEB5 Copy CRC B3D1CEB5 Copy OK

Track 6 Filename: 06 - The Doors - Light My Fire.wav

Peak level 65.5 % Track quality 100.0 % Test CRC 1A492938 Copy CRC 1A492938 Copy OK

Track 7 Filename: 07 - Jim Morrison - Ghost Song.wav

Peak level 75.4 % Track quality 100.0 % Test CRC 98C555D9 Copy CRC 98C555D9 Copy OK

Track 8 Filename: 08 - The Doors - Roadhouse Blues.wav

Peak level 94.7 % Track quality 100.0 % Test CRC F1350598 Copy CRC F1350598 Copy OK

Track 9 Filename: 09 - The Velvet Underground & Nico - Heroin.wav

Peak level 71.9 % Track quality 100.0 % Test CRC F79DDD4F Copy CRC F79DDD4F Copy OK

Track 10 Filename: 10 - Carl Orff - Carmina Burana Introduction.wav

Peak level 95.8 % Track quality 100.0 % Test CRC 133D9072 Copy CRC 133D9072 Copy OK

Track 11 Filename: 11 - Jim Morrison - Stoned Immaculate.wav

Peak level 65.3 % Track quality 100.0 % Test CRC 863059DD Copy CRC 863059DD Copy OK

Track 12 Filename: 12 - The Doors - When The Music's Over.wav

Peak level 85.1 % Track quality 100.0 % Test CRC F1582069 Copy CRC F1582069 Copy OK

Track 13 Filename: 13 - Jim Morrison - The Severed Garden (Adagio).wav

Peak level 73.1 % Track quality 100.0 % Test CRC DD6E12CF Copy CRC DD6E12CF Copy OK

Track 14 Filename: 14 - The Doors - L.A. Woman.wav

Peak level 83.4 % Track quality 100.0 % Test CRC 69A9EFE2 Copy CRC 69A9EFE2 Copy OK

No errors occured

End of status report
 
REM GENRE SoundtrackREM DATE 1991REM DISCID D1110E0EREM COMMENT "ExactAudioCopy v0.95b4"PERFORMER "Various"TITLE "The Doors - Original Soundtrack"FILE "01 - Jim Morrison - The Movie.wav" WAVE TRACK 01 AUDIO TITLE "The Movie" PERFORMER "Jim Morrison" INDEX 01 00:00:00 TRACK 02 AUDIO TITLE "Riders On The Storm" PERFORMER "The Doors" INDEX 00 01:06:05FILE "02 - The Doors - Riders On The Storm.wav" WAVE INDEX 01 00:00:00 TRACK 03 AUDIO TITLE "Love Street" PERFORMER "The Doors" INDEX 00 07:00:55FILE "03 - The Doors - Love Street.wav" WAVE INDEX 01 00:00:00 TRACK 04 AUDIO TITLE "Break On Through" PERFORMER "The Doors" INDEX 00 02:48:45FILE "04 - The Doors - Break On Through.wav" WAVE INDEX 01 00:00:00 TRACK 05 AUDIO TITLE "The End" PERFORMER "The Doors" INDEX 00 02:26:13FILE "05 - The Doors - The End.wav" WAVE INDEX 01 00:00:00 TRACK 06 AUDIO TITLE "Light My Fire" PERFORMER "The Doors" INDEX 00 11:41:37FILE "06 - The Doors - Light My Fire.wav" WAVE INDEX 01 00:00:00 TRACK 07 AUDIO TITLE "Ghost Song" PERFORMER "Jim Morrison" INDEX 00 07:06:00FILE "07 - Jim Morrison - Ghost Song.wav" WAVE INDEX 01 00:00:00FILE "08 - The Doors - Roadhouse Blues.wav" WAVE TRACK 08 AUDIO TITLE "Roadhouse Blues" PERFORMER "The Doors" INDEX 01 00:00:00 TRACK 09 AUDIO TITLE "Heroin" PERFORMER "The Velvet Underground & Nico" INDEX 00 05:20:30FILE "09 - The Velvet Underground & Nico - Heroin.wav" WAVE INDEX 01 00:00:00 TRACK 10 AUDIO TITLE "Carmina Burana Introduction" PERFORMER "Carl Orff" INDEX 00 07:07:63FILE "10 - Carl Orff - Carmina Burana Introduction.wav" WAVE INDEX 01 00:00:00 TRACK 11 AUDIO TITLE "Stoned Immaculate" PERFORMER "Jim Morrison" INDEX 00 02:31:55FILE "11 - Jim Morrison - Stoned Immaculate.wav" WAVE INDEX 01 00:00:00 TRACK 12 AUDIO TITLE "When The Music's Over" PERFORMER "The Doors" INDEX 00 01:34:23FILE "12 - The Doors - When The Music's Over.wav" WAVE INDEX 01 00:00:00 TRACK 13 AUDIO TITLE "The Severed Garden (Adagio)" PERFORMER "Jim Morrison" INDEX 00 10:56:35FILE "13 - Jim Morrison - The Severed Garden (Adagio).wav" WAVE INDEX 01 00:00:00 TRACK 14 AUDIO TITLE "L.A. Woman" PERFORMER "The Doors" INDEX 00 02:10:72FILE "14 - The Doors - L.A. Woman.wav" WAVE INDEX 01 00:00:00


Трекер:  [ 09-Июл-2011 00:18 ]

  

Скачать .torrent

Размер .torrent файла 17 KB


Размер: 408 MB
Хэш (hash) релиза: bc575e79efe9741ca90942ec6b19bf7dc402d8eb

Торренты, похожие на The Doors скачать торрент

Форум Название Автор Размер S L Добавлен
Rосk | Mеtаl | Аltеrnаtivе, Рunk, Indереndеnt (mр3) ·· (Psychedelic Rock, Shoegaze) The Black Ryder - The Door Behind the Door - 2015, MP3, 320 kbps Galfimbul 129917070124 MB 0 0 1424468941

00:49

21-Фев-15

Rосk | Mеtаl | Аltеrnаtivе, Рunk, Indереndеnt (mр3) ·· (Psychedelic Rock) The Doors - The Doors (3CD Box Set, Remastered, 50th Anniversary, 2017) - 1967, MP3, 320 kbps Galfimbul 328961557314 MB 0 0 1494156769

14:32

7-Май-17

Rосk | Mеtаl | Аltеrnаtivе, Рunk, Indереndеnt (mр3) ·· (Rock, Classic Rock, Psychedelic Rock) The Doors - Behind Closed Doors: The Rarities - 2013, MP3, 320 kbps Galfimbul 665735421635 MB 0 0 1388400455

13:47

30-Дек-13

Rосk | Mеtаl | Аltеrnаtivе, Рunk, Indереndеnt (losslеss) ·· (Classic Rock / Rock) The Doors - The Doors - 1988, FLAC (image+.cue), lossless Galfimbul 308848811295 MB 0 0 1297875461

19:57

16-Фев-11

Rосk | Mеtаl | Аltеrnаtivе, Рunk, Indереndеnt (losslеss) ·· (Rock) The Doors - The Very Best Of Doors (2 CD) - 2007, APE (image+.cue), lossless uzi2009 971605243927 MB 0 0 1297875370

19:56

16-Фев-11

Rосk | Mеtаl | Аltеrnаtivе, Рunk, Indереndеnt (losslеss) ·· (Classic Rock) The Doors - [Perception Boxset CD1] - The Doors 1967 - 2006, FLAC (image+.cue), lossless uzi2009 470992312449 MB 0 0 1297875360

19:56

16-Фев-11

Саундтреки к фильмам и мультфильмам (lossless) ·· (Soundtrack) Когда ты чужой / When You're Strange: A Film About The Doors (The Doors & VA) - 2010, FLAC (tracks+.cue), lossless AqvaGen 425632503406 MB 0 0 1292268489

22:28

13-Дек-10

Rосk | Mеtаl | Аltеrnаtivе, Рunk, Indереndеnt (mр3) ·· (Classic Rock, Psychedelic Rock) The Doors - The Singles (Remastered) - 2017, MP3, 320 kbps Galfimbul 339415916324 MB 0 0 1505468036

12:33

15-Сен-17

Электронная музыка (mp3) ·· (Ambient) The Door into Summer - Substance 1st: The Distance - 2017, MP3, 320 kbps Galfimbul 129841204124 MB 0 0 1487721901

03:05

22-Фев-17

Rосk | Mеtаl | Аltеrnаtivе, Рunk, Indереndеnt (mр3) ·· (Psychedelic rock) The Doors, Jim Morrison, Ray Manzarek Ucla Trio, Rick & The Ravens- Коллекция - 1961-2012 (75 Релизов), MP3, 56-320 kbps. Часть 2/3 Galfimbul 1182806614911.02 GB 0 0 1483859483

10:11

8-Янв-17

Rосk | Mеtаl | Аltеrnаtivе, Рunk, Indереndеnt (mр3) ·· (Psychedelic rock) The Doors, Jim Morrison, Ray Manzarek Ucla Trio, Rick & The Ravens- Коллекция - 1961-2012 (75 Релизов), MP3, 56-320 kbps. Часть 2/3 Galfimbul 1182801853311.02 GB 0 0 1483807863

19:51

7-Янв-17

Саундтреки к фильмам и мультфильмам (mp3) ·· (Score) По ту сторону двери / The Other Side Of The Door (Joseph Bishara) - 2016, MP3, 320 kbps Galfimbul 9857676994 MB 0 0 1464556755

00:19

30-Май-16

Rосk | Mеtаl | Аltеrnаtivе, Рunk, Indереndеnt (mр3) ·· (Psychedelic Rock | Classic Rock) VA - The Many Faces of The Doors (3CD) - 2015, MP3, 320 kbps Galfimbul 349240771333 MB 0 0 1425118585

13:16

28-Фев-15

Электронная музыка (lossless) ·· (Deep House) Nick Chacona - Through The Door / The Next (VIS134) (WEB) 2006, FLAC (tracks), lossless Galfimbul 108568769104 MB 0 0 1413137009

21:03

12-Окт-14

Rосk | Mеtаl | Аltеrnаtivе, Рunk, Indереndеnt (mр3) ·· (Psychedelic rock) The Doors, Jim Morrison, Ray Manzarek Ucla Trio, Rick & The Ravens- Коллекция - 1961-2012 (74 Релиза), MP3, 56-320 kbps. Часть 2/3 _N_ 1175055518910.94 GB 0 0 1374935822

17:37

27-Июл-13

Зарубежный Rock ·· (Psychedelic rock) The Doors, Jim Morrison, Ray Manzarek Ucla Trio, Rick & The Ravens- Коллекция - 1961-2010 (129 альбомов), MP3 (tracks), 56-320 kbps. Часть 1/3 Galfimbul 64708376106.03 GB 0 0 1358950500

17:15

23-Янв-13

Зарубежный Rock ·· (Psychedelic rock) The Doors, Jim Morrison, Ray Manzarek Ucla Trio, Rick & The Ravens- Коллекция - 1961-2010 (129 альбомов), MP3 (tracks), 56-320 kbps. Часть 2/3 Galfimbul 1157083941810.78 GB 0 0 1357848120

23:02

10-Янв-13

Зарубежный Rock ·· (Psychedelic rock) The Doors, Jim Morrison, Ray Manzarek Ucla Trio, Rick & The Ravens- Коллекция - 1961-2010 (129 альбомов), MP3 (tracks), 56-320 kbps. Часть 1/3 Galfimbul 59075677465.5 GB 0 0 1353999540

09:59

27-Ноя-12

Зарубежный Rock ·· (Psychedelic rock) The Doors, Jim Morrison, Ray Manzarek Ucla Trio, Rick & The Ravens- Коллекция - 1961-2010 (129 альбомов), MP3 (tracks), 56-320 kbps. Часть 3/3 Galfimbul 70767880226.59 GB 0 0 1353999780

10:03

27-Ноя-12

Зарубежный Rock ·· (Rock / Psychedelic Rock) The Doors - Live At the Bowl '68 - 2012, MP3, 320 kbps Galfimbul 170672128163 MB 0 0 1352119860

15:51

5-Ноя-12

Еще никто не оставлял запись к записи скачать торрент The Doors . Будь первым!

!Обратная связь