Скачать через торрент музыку Monsters, Inc. Корпорация монстров бесплатно без регистрации torrent

Если у вас наблюдаются проблемы со скриншотами, переходом по ссылками, скачиванием торрентов - проблемы в блокировщике рекламы AdBlock. #хорошегоДня!


Статистика раздачи
Размер:  327 MB   |    Зарегистрирован:  6 лет 2 месяца   |    .torrent скачан:  45 раз   |   
Раздают:  1  
   
Загрузка...
 
Автор Сообщение

Galfimbul

avatar Galfimbul


Monsters, Inc. / Корпорация монстров

Жанр: Score
Год выпуска диска: 2001
Производитель диска: США
Аудио кодек: FLAC
Тип рипа: tracks+.cue
Битрейт аудио: lossless
Продолжительность: 1:00:41
Источник: What.CD

01 - If I Didn't Have You (3:41)
feat. Billy Crystal & John Goodman
02 - Monsters, Inc. (2:09)
03 - School (1:38)
04 - Walk To Work (3:30)
05 - Sulley And Mike (1:58)
06 - Randall Appears (0:50)
07 - Enter The Heroes (1:04)
08 - The Scarefloor (2:41)
09 - Oh, Celia! (1:09)
10 - Boo's Adventures In Monstropolis (6:23)
11 - Boo Is Tired (1:03)
12 - Putting Boo Back (2:22)
13 - Boo Escapes! (0:53)
14 - Celia Is Mad (1:41)
15 - Boo Is A Cube (2:19)
16 - Mike's In Trouble (2:20)
17 - The Scream Extractor (2:13)
18 - Sulley Scares Boo (1:10)
19 - Exile (2:18)
20 - Randall's Attack (2:23)
21 - The Ride Of The Doors (5:08)
22 - Waternoose Is Waiting (3:14)
23 - Boo's Going Home (3:35)
24 - Kitty (1:21)
25 - If I Didn't Have You (3:39)

В раздаче находятся 2 CUE - Non-compliant (для записи на диск) и Compliant (для прослушивания на компьютере)
ПРИЯТНОГО ПРОСЛУШИВАНИЯ!
 
Exact Audio Copy V0.99 prebeta 4 from 23. January 2008

EAC extraction logfile from 29. December 2008, 21:45

Randy Newman / Monsters, Inc.

Used drive : SONY CD-RW CRX230ED Adapter: 1 ID: 0

Read mode : SecureUtilize accurate stream : YesDefeat audio cache : YesMake use of C2 pointers : No

Read offset correction : 6Overread into Lead-In and Lead-Out : NoFill up missing offset samples with silence : YesDelete leading and trailing silent blocks : NoNull samples used in CRC calculations : YesUsed interface : Native Win32 interface for Win NT & 2000Gap handling : Appended to previous track

Used output format : User Defined EncoderSelected bitrate : 1024 kBit/sQuality : HighAdd ID3 tag : NoCommand line compressor : C:\Program Files\Exact Audio Copy\Flac\flac.exeAdditional command line options : -V -8 -T "artist=%a" -T "title=%t" -T "album=%g" -T "date=%y" -T "tracknumber=%n" -T "genre=%m" %s

TOC of the extracted CD

Track | Start | Length | Start sector | End sector --------------------------------------------------------- 1 | 0:00.00 | 3:41.30 | 0 | 16604 2 | 3:41.30 | 2:09.35 | 16605 | 26314 3 | 5:50.65 | 1:38.35 | 26315 | 33699 4 | 7:29.25 | 3:29.45 | 33700 | 49419 5 | 10:58.70 | 1:57.45 | 49420 | 58239 6 | 12:56.40 | 0:49.42 | 58240 | 61956 7 | 13:46.07 | 1:03.70 | 61957 | 66751 8 | 14:50.02 | 2:41.25 | 66752 | 78851 9 | 17:31.27 | 1:09.13 | 78852 | 84039 10 | 18:40.40 | 6:23.02 | 84040 | 112766 11 | 25:03.42 | 1:03.23 | 112767 | 117514 12 | 26:06.65 | 2:22.10 | 117515 | 128174 13 | 28:29.00 | 0:52.50 | 128175 | 132124 14 | 29:21.50 | 1:41.05 | 132125 | 139704 15 | 31:02.55 | 2:19.17 | 139705 | 150146 16 | 33:21.72 | 2:19.43 | 150147 | 160614 17 | 35:41.40 | 2:12.67 | 160615 | 170581 18 | 37:54.32 | 1:10.10 | 170582 | 175841 19 | 39:04.42 | 2:17.50 | 175842 | 186166 20 | 41:22.17 | 2:22.53 | 186167 | 196869 21 | 43:44.70 | 5:08.10 | 196870 | 219979 22 | 48:53.05 | 3:14.25 | 219980 | 234554 23 | 52:07.30 | 3:34.65 | 234555 | 250669 24 | 55:42.20 | 1:20.67 | 250670 | 256736 25 | 57:03.12 | 3:38.48 | 256737 | 273134

Track 1

Filename C:\EACrips\Randy Newman - 2001 - Monsters, Inc\01 - If I Didn't Have You (feat. Billy Crystal and John Goodman).wav

Pre-gap length 0:00:02.00

Peak level 100.0 % Track quality 100.0 % Test CRC 5069015B Copy CRC 5069015B Accurately ripped (confidence 4) [2B0D063B] Copy OK

Track 2

Filename C:\EACrips\Randy Newman - 2001 - Monsters, Inc\02 - Monsters, Inc..wav

Pre-gap length 0:00:02.00

Peak level 100.0 % Track quality 100.0 % Test CRC FA7E6A36 Copy CRC FA7E6A36 Accurately ripped (confidence 3) [007051E0] Copy OK

Track 3

Filename C:\EACrips\Randy Newman - 2001 - Monsters, Inc\03 - School.wav

Pre-gap length 0:00:02.05

Peak level 100.0 % Track quality 100.0 % Test CRC 4F42EF1C Copy CRC 4F42EF1C Accurately ripped (confidence 3) [6D31AFF3] Copy OK

Track 4

Filename C:\EACrips\Randy Newman - 2001 - Monsters, Inc\04 - Walk to Work.wav

Pre-gap length 0:00:00.58

Peak level 100.0 % Track quality 100.0 % Test CRC 57599D4D Copy CRC 57599D4D Accurately ripped (confidence 3) [7393214F] Copy OK

Track 5

Filename C:\EACrips\Randy Newman - 2001 - Monsters, Inc\05 - Sulley and Mike.wav

Peak level 100.0 % Track quality 100.0 % Test CRC F61EDE1E Copy CRC F61EDE1E Accurately ripped (confidence 3) [1B8D9F7C] Copy OK

Track 6

Filename C:\EACrips\Randy Newman - 2001 - Monsters, Inc\06 - Randall Appears.wav

Peak level 100.0 % Track quality 100.0 % Test CRC E9E0EFE7 Copy CRC E9E0EFE7 Accurately ripped (confidence 3) [31E8B948] Copy OK

Track 7

Filename C:\EACrips\Randy Newman - 2001 - Monsters, Inc\07 - Enter the Heroes.wav

Pre-gap length 0:00:00.20

Peak level 100.0 % Track quality 100.0 % Test CRC B56678ED Copy CRC B56678ED Accurately ripped (confidence 3) [81007B6A] Copy OK

Track 8

Filename C:\EACrips\Randy Newman - 2001 - Monsters, Inc\08 - The Scarefloor.wav

Peak level 100.0 % Track quality 100.0 % Test CRC 365068A3 Copy CRC 365068A3 Accurately ripped (confidence 3) [CC8BC858] Copy OK

Track 9

Filename C:\EACrips\Randy Newman - 2001 - Monsters, Inc\09 - Oh, Celia!.wav

Pre-gap length 0:00:00.52

Peak level 100.0 % Track quality 100.0 % Test CRC 8A93EEF6 Copy CRC 8A93EEF6 Accurately ripped (confidence 3) [6828EE3D] Copy OK

Track 10

Filename C:\EACrips\Randy Newman - 2001 - Monsters, Inc\10 - Boo's Adventures in Monstropolis.wav

Pre-gap length 0:00:00.40

Peak level 100.0 % Track quality 100.0 % Test CRC E0EF72D7 Copy CRC E0EF72D7 Accurately ripped (confidence 3) [23E0322E] Copy OK

Track 11

Filename C:\EACrips\Randy Newman - 2001 - Monsters, Inc\11 - Boo is Tired.wav

Pre-gap length 0:00:00.17

Peak level 80.2 % Track quality 100.0 % Test CRC 90A410B5 Copy CRC 90A410B5 Accurately ripped (confidence 3) [0B3630E9] Copy OK

Track 12

Filename C:\EACrips\Randy Newman - 2001 - Monsters, Inc\12 - Putting Boo Back.wav

Peak level 100.0 % Track quality 99.9 % Test CRC 48E31B9E Copy CRC 48E31B9E Accurately ripped (confidence 3) [44AEB64B] Copy OK

Track 13

Filename C:\EACrips\Randy Newman - 2001 - Monsters, Inc\13 - Boo Escapes!.wav

Peak level 100.0 % Track quality 100.0 % Test CRC 2C78C0B0 Copy CRC 2C78C0B0 Accurately ripped (confidence 3) [3A5687E7] Copy OK

Track 14

Filename C:\EACrips\Randy Newman - 2001 - Monsters, Inc\14 - Celia is Mad.wav

Pre-gap length 0:00:00.38

Peak level 100.0 % Track quality 100.0 % Test CRC 71159331 Copy CRC 71159331 Accurately ripped (confidence 3) [B60AE20F] Copy OK

Track 15

Filename C:\EACrips\Randy Newman - 2001 - Monsters, Inc\15 - Boo is a Cube.wav

Peak level 100.0 % Track quality 100.0 % Test CRC 6C82068C Copy CRC 6C82068C Accurately ripped (confidence 3) [4D2B7A53] Copy OK

Track 16

Filename C:\EACrips\Randy Newman - 2001 - Monsters, Inc\16 - Mike's in Trouble.wav

Pre-gap length 0:00:00.72

Peak level 100.0 % Track quality 100.0 % Test CRC F10C2F70 Copy CRC F10C2F70 Accurately ripped (confidence 3) [46076C97] Copy OK

Track 17

Filename C:\EACrips\Randy Newman - 2001 - Monsters, Inc\17 - The Scream Extractor.wav

Pre-gap length 0:00:00.40

Peak level 100.0 % Track quality 100.0 % Test CRC 8A2188A5 Copy CRC 8A2188A5 Accurately ripped (confidence 3) [B83E3E96] Copy OK

Track 18

Filename C:\EACrips\Randy Newman - 2001 - Monsters, Inc\18 - Sulley Scares Boo.wav

Pre-gap length 0:00:00.32

Peak level 55.3 % Track quality 100.0 % Test CRC 7AACB933 Copy CRC 7AACB933 Accurately ripped (confidence 3) [B9928139] Copy OK

Track 19

Filename C:\EACrips\Randy Newman - 2001 - Monsters, Inc\19 - Exile.wav

Pre-gap length 0:00:01.10

Peak level 100.0 % Track quality 100.0 % Test CRC 4EE4524F Copy CRC 4EE4524F Accurately ripped (confidence 3) [ADFF34F5] Copy OK

Track 20

Filename C:\EACrips\Randy Newman - 2001 - Monsters, Inc\20 - Randall's Attack.wav

Pre-gap length 0:00:00.55

Peak level 100.0 % Track quality 100.0 % Test CRC 292A4980 Copy CRC 292A4980 Accurately ripped (confidence 3) [CE2646AE] Copy OK

Track 21

Filename C:\EACrips\Randy Newman - 2001 - Monsters, Inc\21 - The Ride of the Doors.wav

Pre-gap length 0:00:00.20

Peak level 100.0 % Track quality 99.9 % Test CRC AEC0FAF6 Copy CRC AEC0FAF6 Accurately ripped (confidence 2) [C8F5EB88] Copy OK

Track 22

Filename C:\EACrips\Randy Newman - 2001 - Monsters, Inc\22 - Waternoose is Waiting.wav

Peak level 100.0 % Track quality 100.0 % Test CRC CB8E8C36 Copy CRC CB8E8C36 Accurately ripped (confidence 3) [A144A317] Copy OK

Track 23

Filename C:\EACrips\Randy Newman - 2001 - Monsters, Inc\23 - Boo's Going Home.wav

Pre-gap length 0:00:01.45

Peak level 100.0 % Track quality 99.9 % Test CRC 6C9A6841 Copy CRC 6C9A6841 Accurately ripped (confidence 3) [7FA9DB32] Copy OK

Track 24

Filename C:\EACrips\Randy Newman - 2001 - Monsters, Inc\24 - Kitty.wav

Pre-gap length 0:00:01.08

Peak level 77.0 % Track quality 100.0 % Test CRC D2CFD348 Copy CRC D2CFD348 Accurately ripped (confidence 3) [11E0DA1C] Copy OK

Track 25

Filename C:\EACrips\Randy Newman - 2001 - Monsters, Inc\25 - If I Didn't Have You.wav

Pre-gap length 0:00:01.62

Peak level 100.0 % Track quality 100.0 % Test CRC C57470DB Copy CRC C57470DB Accurately ripped (confidence 3) [EDFAD344] Copy OK

All tracks accurately ripped

No errors occurred

End of status report
 
REM GENRE UnknownREM DATE 2001REM DISCID 500E3919REM COMMENT "ExactAudioCopy v0.99pb4"PERFORMER "Randy Newman"TITLE "Monsters, Inc."FILE "01 - If I Didn't Have You (feat. Billy Crystal and John Goodman).wav" WAVE TRACK 01 AUDIO TITLE "If I Didn't Have You (feat. Billy Crystal and John Goodman)" PERFORMER "Randy Newman" INDEX 01 00:00:00 TRACK 02 AUDIO TITLE "Monsters, Inc." PERFORMER "Randy Newman" INDEX 00 03:39:30FILE "02 - Monsters, Inc..wav" WAVE INDEX 01 00:00:00 TRACK 03 AUDIO TITLE "School" PERFORMER "Randy Newman" INDEX 00 02:07:30FILE "03 - School.wav" WAVE INDEX 01 00:00:00 TRACK 04 AUDIO TITLE "Walk to Work" PERFORMER "Randy Newman" INDEX 00 01:37:52FILE "04 - Walk to Work.wav" WAVE INDEX 01 00:00:00FILE "05 - Sulley and Mike.wav" WAVE TRACK 05 AUDIO TITLE "Sulley and Mike" PERFORMER "Randy Newman" INDEX 01 00:00:00FILE "06 - Randall Appears.wav" WAVE TRACK 06 AUDIO TITLE "Randall Appears" PERFORMER "Randy Newman" INDEX 01 00:00:00 TRACK 07 AUDIO TITLE "Enter the Heroes" PERFORMER "Randy Newman" INDEX 00 00:49:22FILE "07 - Enter the Heroes.wav" WAVE INDEX 01 00:00:00FILE "08 - The Scarefloor.wav" WAVE TRACK 08 AUDIO TITLE "The Scarefloor" PERFORMER "Randy Newman" INDEX 01 00:00:00 TRACK 09 AUDIO TITLE "Oh, Celia!" PERFORMER "Randy Newman" INDEX 00 02:40:48FILE "09 - Oh, Celia!.wav" WAVE INDEX 01 00:00:00 TRACK 10 AUDIO TITLE "Boo's Adventures in Monstropolis" PERFORMER "Randy Newman" INDEX 00 01:08:48FILE "10 - Boo's Adventures in Monstropolis.wav" WAVE INDEX 01 00:00:00 TRACK 11 AUDIO TITLE "Boo is Tired" PERFORMER "Randy Newman" INDEX 00 06:22:60FILE "11 - Boo is Tired.wav" WAVE INDEX 01 00:00:00FILE "12 - Putting Boo Back.wav" WAVE TRACK 12 AUDIO TITLE "Putting Boo Back" PERFORMER "Randy Newman" INDEX 01 00:00:00FILE "13 - Boo Escapes!.wav" WAVE TRACK 13 AUDIO TITLE "Boo Escapes!" PERFORMER "Randy Newman" INDEX 01 00:00:00 TRACK 14 AUDIO TITLE "Celia is Mad" PERFORMER "Randy Newman" INDEX 00 00:52:12FILE "14 - Celia is Mad.wav" WAVE INDEX 01 00:00:00FILE "15 - Boo is a Cube.wav" WAVE TRACK 15 AUDIO TITLE "Boo is a Cube" PERFORMER "Randy Newman" INDEX 01 00:00:00 TRACK 16 AUDIO TITLE "Mike's in Trouble" PERFORMER "Randy Newman" INDEX 00 02:18:20FILE "16 - Mike's in Trouble.wav" WAVE INDEX 01 00:00:00 TRACK 17 AUDIO TITLE "The Scream Extractor" PERFORMER "Randy Newman" INDEX 00 02:19:03FILE "17 - The Scream Extractor.wav" WAVE INDEX 01 00:00:00 TRACK 18 AUDIO TITLE "Sulley Scares Boo" PERFORMER "Randy Newman" INDEX 00 02:12:35FILE "18 - Sulley Scares Boo.wav" WAVE INDEX 01 00:00:00 TRACK 19 AUDIO TITLE "Exile" PERFORMER "Randy Newman" INDEX 00 01:09:00FILE "19 - Exile.wav" WAVE INDEX 01 00:00:00 TRACK 20 AUDIO TITLE "Randall's Attack" PERFORMER "Randy Newman" INDEX 00 02:16:70FILE "20 - Randall's Attack.wav" WAVE INDEX 01 00:00:00 TRACK 21 AUDIO TITLE "The Ride of the Doors" PERFORMER "Randy Newman" INDEX 00 02:22:33FILE "21 - The Ride of the Doors.wav" WAVE INDEX 01 00:00:00FILE "22 - Waternoose is Waiting.wav" WAVE TRACK 22 AUDIO TITLE "Waternoose is Waiting" PERFORMER "Randy Newman" INDEX 01 00:00:00 TRACK 23 AUDIO TITLE "Boo's Going Home" PERFORMER "Randy Newman" INDEX 00 03:12:55FILE "23 - Boo's Going Home.wav" WAVE INDEX 01 00:00:00 TRACK 24 AUDIO TITLE "Kitty" PERFORMER "Randy Newman" INDEX 00 03:33:57FILE "24 - Kitty.wav" WAVE INDEX 01 00:00:00 TRACK 25 AUDIO TITLE "If I Didn't Have You" PERFORMER "Randy Newman" INDEX 00 01:19:05FILE "25 - If I Didn't Have You.wav" WAVE INDEX 01 00:00:00


Трекер:  [ 09-Июл-2011 00:18 ]

  

Скачать .torrent

Размер .torrent файла 15 KB


Размер: 327 MB
Хэш (hash) релиза: 7bb580392153eeb6b1a58a678b1f730f1964ad1a

Еще никто не оставлял запись к записи скачать торрент Monsters, Inc. Корпорация монстров . Будь первым!

!Обратная связь