Скачать через торрент музыку Henry Mancini - Pure Gold - 1990, FLAC бесплатно без регистрации torrent

Если у вас наблюдаются проблемы со скриншотами, переходом по ссылками, скачиванием торрентов - проблемы в блокировщике рекламы AdBlock. #хорошегоДня!


Статистика раздачи
Размер:  138 MB   |    Зарегистрирован:  6 лет 2 месяца   |    .torrent скачан:  39 раз   |   
Раздают:  1  
   
Загрузка...
 
Автор Сообщение

Galfimbul

avatar Galfimbul


Henry Mancini - Pure Gold

Жанр: Compilation
Год выпуска диска: 1990
Аудио кодек: FLAC
Тип рипа: tracks+.cue
Битрейт аудио: lossless
Трэклист:
1. Moon River
2. Days Of Wine And Roses
3. Charade [Vocal Version]
4. Moment To Moment
5. Love Theme From "Romeo And Juliet"
6. Pink Panther Theme
7. Mr. Lucky
8. Baby Elephant Walk
9. Peter Gunn
10. It Had Better Be Tonight
 
X Lossless Decoder version 20080926 (93.3)

XLD extraction logfile from 2009-01-01 00:41:26 -0600

Henry Mancini / Pure Gold

Used drive : PIONEER DVD-RW DVR-112D (revision 1.21)

Use cdparanoia mode : YES (CDParanoia III 9.8 engine)Disable audio cache : OK for the drive with cache less than 370KBMake use of C2 pointers : NORead offset correction : 48Max retry count : 100

TOC of the extracted CD Track | Start | Length | Start sector | End sector --------------------------------------------------------- 1 | 00:00:00 | 02:42:07 | 0 | 12156 2 | 02:42:07 | 02:08:33 | 12157 | 21789 3 | 04:50:40 | 02:36:20 | 21790 | 33509 4 | 07:26:60 | 02:55:22 | 33510 | 46656 5 | 10:22:07 | 02:33:53 | 46657 | 58184 6 | 12:55:60 | 02:36:12 | 58185 | 69896 7 | 15:31:72 | 02:14:05 | 69897 | 79951 8 | 17:46:02 | 02:43:10 | 79952 | 92186 9 | 20:29:12 | 02:06:45 | 92187 | 101681 10 | 22:35:57 | 01:44:68 | 101682 | 109549

List of alternate offset correction values # | Absolute | Relative | Confidence ------------------------------------------ 1 | 842 | 794 | 8

Track 01 Filename : /Volumes/Romulus/Filesharing/New Rips/01 - Moon River.flac /Volumes/Romulus/Filesharing/New Rips/01 - Moon River.mp3 CRC32 hash (test run) : EF6D61BB CRC32 hash : EF6D61BB CRC32 hash (skip zero) : E8C292DC AccurateRip signature : 6C0C958F ->Accurately ripped! (confidence 2) Statistics Read error : 0 Skipped (treated as error) : 0 Edge jitter error (maybe fixed) : 0 Atom jitter error (maybe fixed) : 0 Drift error (maybe fixed) : 0 Dropped bytes error (maybe fixed) : 0 Duplicated bytes error (maybe fixed) : 0 Inconsistency in error sectors : 0

Track 02 Filename : /Volumes/Romulus/Filesharing/New Rips/02 - Days Of Wine And Roses.flac /Volumes/Romulus/Filesharing/New Rips/02 - Days Of Wine And Roses.mp3 CRC32 hash (test run) : A346F66C CRC32 hash : A346F66C CRC32 hash (skip zero) : 93691E96 AccurateRip signature : 4CF8DD71 ->Accurately ripped! (confidence 2) Statistics Read error : 0 Skipped (treated as error) : 0 Edge jitter error (maybe fixed) : 0 Atom jitter error (maybe fixed) : 0 Drift error (maybe fixed) : 0 Dropped bytes error (maybe fixed) : 0 Duplicated bytes error (maybe fixed) : 0 Inconsistency in error sectors : 0

Track 03 Filename : /Volumes/Romulus/Filesharing/New Rips/03 - Charade.flac /Volumes/Romulus/Filesharing/New Rips/03 - Charade.mp3 CRC32 hash (test run) : AD22BACA CRC32 hash : AD22BACA CRC32 hash (skip zero) : 92391828 AccurateRip signature : 138F0C43 ->Accurately ripped! (confidence 2) Statistics Read error : 0 Skipped (treated as error) : 0 Edge jitter error (maybe fixed) : 1 Atom jitter error (maybe fixed) : 0 Drift error (maybe fixed) : 0 Dropped bytes error (maybe fixed) : 1 Duplicated bytes error (maybe fixed) : 1 Inconsistency in error sectors : 0

Track 04 Filename : /Volumes/Romulus/Filesharing/New Rips/04 - Moment To Moment.flac /Volumes/Romulus/Filesharing/New Rips/04 - Moment To Moment.mp3 CRC32 hash (test run) : 3D50321B CRC32 hash : 3D50321B CRC32 hash (skip zero) : 26E92B62 AccurateRip signature : 5DB7069F ->Accurately ripped! (confidence 2) Statistics Read error : 0 Skipped (treated as error) : 0 Edge jitter error (maybe fixed) : 0 Atom jitter error (maybe fixed) : 0 Drift error (maybe fixed) : 0 Dropped bytes error (maybe fixed) : 0 Duplicated bytes error (maybe fixed) : 0 Inconsistency in error sectors : 0

Track 05 Filename : /Volumes/Romulus/Filesharing/New Rips/05 - Love Theme From Romeo And Juliet.flac /Volumes/Romulus/Filesharing/New Rips/05 - Love Theme From Romeo And Juliet.mp3 CRC32 hash (test run) : C19F3CA3 CRC32 hash : C19F3CA3 CRC32 hash (skip zero) : 2178298B AccurateRip signature : FCA9D51B ->Accurately ripped! (confidence 2) Statistics Read error : 0 Skipped (treated as error) : 0 Edge jitter error (maybe fixed) : 0 Atom jitter error (maybe fixed) : 0 Drift error (maybe fixed) : 0 Dropped bytes error (maybe fixed) : 0 Duplicated bytes error (maybe fixed) : 0 Inconsistency in error sectors : 0

Track 06 Filename : /Volumes/Romulus/Filesharing/New Rips/06 - The Pink Panther Theme.flac /Volumes/Romulus/Filesharing/New Rips/06 - The Pink Panther Theme.mp3 CRC32 hash (test run) : 9313DF4C CRC32 hash : 9313DF4C CRC32 hash (skip zero) : 3F62AA07 AccurateRip signature : AF349E88 ->Accurately ripped! (confidence 2) Statistics Read error : 0 Skipped (treated as error) : 0 Edge jitter error (maybe fixed) : 0 Atom jitter error (maybe fixed) : 0 Drift error (maybe fixed) : 0 Dropped bytes error (maybe fixed) : 0 Duplicated bytes error (maybe fixed) : 0 Inconsistency in error sectors : 0

Track 07 Filename : /Volumes/Romulus/Filesharing/New Rips/07 - Mr. Lucky.flac /Volumes/Romulus/Filesharing/New Rips/07 - Mr. Lucky.mp3 CRC32 hash (test run) : 2C1CBEC1 CRC32 hash : 2C1CBEC1 CRC32 hash (skip zero) : EACFC5DF AccurateRip signature : E32CC06C ->Accurately ripped! (confidence 2) Statistics Read error : 0 Skipped (treated as error) : 0 Edge jitter error (maybe fixed) : 0 Atom jitter error (maybe fixed) : 0 Drift error (maybe fixed) : 0 Dropped bytes error (maybe fixed) : 0 Duplicated bytes error (maybe fixed) : 0 Inconsistency in error sectors : 0

Track 08 Filename : /Volumes/Romulus/Filesharing/New Rips/08 - Baby Elephant Walk.flac /Volumes/Romulus/Filesharing/New Rips/08 - Baby Elephant Walk.mp3 CRC32 hash (test run) : 6040ED84 CRC32 hash : 6040ED84 CRC32 hash (skip zero) : 26DE6189 AccurateRip signature : CF42FA74 ->Accurately ripped! (confidence 2) Statistics Read error : 0 Skipped (treated as error) : 0 Edge jitter error (maybe fixed) : 0 Atom jitter error (maybe fixed) : 0 Drift error (maybe fixed) : 0 Dropped bytes error (maybe fixed) : 0 Duplicated bytes error (maybe fixed) : 0 Inconsistency in error sectors : 0

Track 09 Filename : /Volumes/Romulus/Filesharing/New Rips/09 - Peter Gunn.flac /Volumes/Romulus/Filesharing/New Rips/09 - Peter Gunn.mp3 CRC32 hash (test run) : 4A14C09C CRC32 hash : 4A14C09C CRC32 hash (skip zero) : E04D55F4 AccurateRip signature : 24A10B9F ->Accurately ripped! (confidence 2) Statistics Read error : 0 Skipped (treated as error) : 0 Edge jitter error (maybe fixed) : 0 Atom jitter error (maybe fixed) : 0 Drift error (maybe fixed) : 0 Dropped bytes error (maybe fixed) : 0 Duplicated bytes error (maybe fixed) : 0 Inconsistency in error sectors : 0

Track 10 Filename : /Volumes/Romulus/Filesharing/New Rips/10 - It Had Better Be Tonight.flac /Volumes/Romulus/Filesharing/New Rips/10 - It Had Better Be Tonight.mp3 CRC32 hash (test run) : 557122FC CRC32 hash : 557122FC CRC32 hash (skip zero) : 708B9D90 AccurateRip signature : 474812DF ->Accurately ripped! (confidence 2) Statistics Read error : 0 Skipped (treated as error) : 0 Edge jitter error (maybe fixed) : 0 Atom jitter error (maybe fixed) : 0 Drift error (maybe fixed) : 0 Dropped bytes error (maybe fixed) : 0 Duplicated bytes error (maybe fixed) : 0 Inconsistency in error sectors : 0

No errors occurred

End of status report


Трекер:  [ 08-Июл-2011 23:57 ]

  

Скачать .torrent

Размер .torrent файла 12 KB


Размер: 138 MB
Хэш (hash) релиза: b64ad9cd5f9a8ac7f2c44a9f265a46351ea7250b

Еще никто не оставлял запись к записи скачать торрент Henry Mancini - Pure Gold - 1990, FLAC . Будь первым!

!Обратная связь