Скачать через торрент музыку Ночь страшного суда Judgment Night - 1993, FLAC бесплатно без регистрации torrent

Если у вас наблюдаются проблемы со скриншотами, переходом по ссылками, скачиванием торрентов - проблемы в блокировщике рекламы AdBlock. #хорошегоДня!


Статистика раздачи
Размер:  292 MB   |    Зарегистрирован:  6 лет 2 месяца   |    .torrent скачан:  36 раз   |   
Раздают:  1  
   
Загрузка...
 
Автор Сообщение

Galfimbul

avatar Galfimbul


Judgment Night

Страна: USA
Жанр: OST
Год выпуска: 1993
Формат: FLAC (image + .cue)
Битрейт аудио: lossless
Продолжительность: 45:52
Трэклист:

1 Helmet (2) & House Of Pain - Just Another Victim (4:21)
2 Teenage Fanclub & De La Soul Fallin' (4:25)
3 Living Colour & Run-DMC Me, Myself & My Microphone (3:08)
4 Biohazard & Onyx Judgement Night (4:35)
5 Slayer & Ice-T Disorder (4:57)
6 Faith No More & Boo-Yaa T.R.I.B.E. Another Body Murdered (4:22)
7 Sonic Youth & Cypress Hill I Love You Mary Jane (3:49)
8 Mudhoney & Sir Mix-A-Lot Freak Momma (3:57)
9 Dinosaur Jr. & Del Tha Funkee Homosapien Missing Link (3:44)
10 Therapy? & Fatal Come And Die (4:22)
11 Pearl Jam & Cypress Hill Real Thing (3:31)
Exact Audio Copy V0.99 prebeta 3 from 28. July 2007

Отчёт EAC об извлечении, выполненном 12. апреля 2008, 20:49

Various Artists / Judgment Night Soundtrack

Дисковод: PLEXTOR DVDR PX-750A Adapter: 1 ID: 0

Режим чтения : Достоверность
Использование точного потока : Да
Отключение кэша аудио : Да
Использование указателей C2 : Нет

Коррекция смещения при чтении : 102
Способность читать области Lead-in и Lead-out : Нет
Заполнение пропущенных сэмплов тишиной : Да
Удаление блоков с тишиной в начале и конце : Нет
При вычислениях CRC использовались нулевые сэмплы : Да
Интерфейс : Установленный внешний ASPI-интерфейс

Выходной формат : Внутренние WAV-операции
Формат сэмплов : 44.100 Гц; 16 бит; стерео

TOC извлечённого CD

Трек | Старт | Длительность | Начальный сектор | Конечный сектор
---------------------------------------------------------------------
1 | 0:00.00 | 4:24.62 | 0 | 19861
2 | 4:24.62 | 4:28.05 | 19862 | 39966
3 | 8:52.67 | 3:08.10 | 39967 | 54076
4 | 12:01.02 | 4:36.55 | 54077 | 74831
5 | 16:37.57 | 4:59.30 | 74832 | 97286
6 | 21:37.12 | 4:25.28 | 97287 | 117189
7 | 26:02.40 | 3:52.05 | 117190 | 134594
8 | 29:54.45 | 4:01.72 | 134595 | 152741
9 | 33:56.42 | 3:59.48 | 152742 | 170714
10 | 37:56.15 | 4:26.05 | 170715 | 190669
11 | 42:22.20 | 3:30.35 | 190670 | 206454

Характеристики диапазона извлечения и сообщения об ошибках

Выбранный диапазон

Имя файла D:\music\OST Judgment Night (lossless)\Various Artists - Judgment Night Soundtrack.wav

Пиковый уровень 98.8 %
Качество диапазона 100.0 %
CRC копии A8879F45
Копирование... OK

Ошибок не произошло

AccurateRip: сводка

Трек 1 точность не определена (достоверность 2) [4BA27F15], AccurateRip вернул [B80BD9E3]
Трек 2 точность не определена (достоверность 2) [56B88D06], AccurateRip вернул [A7C6E4B0]
Трек 3 точность не определена (достоверность 2) [6FCDDB27], AccurateRip вернул [2DD5211F]
Трек 4 точность не определена (достоверность 2) [265C1D71], AccurateRip вернул [766C300F]
Трек 5 точность не определена (достоверность 2) [5889F73A], AccurateRip вернул [731795EC]
Трек 6 точность не определена (достоверность 2) [5F2840EC], AccurateRip вернул [0F0013E8]
Трек 7 точность не определена (достоверность 2) [942477CE], AccurateRip вернул [F8CB7202]
Трек 8 точность не определена (достоверность 2) [421EE1E6], AccurateRip вернул [68AE65A0]
Трек 9 точность не определена (достоверность 2) [38696DAC], AccurateRip вернул [790D6D26]
Трек 10 точность не определена (достоверность 2) [BF4C46EB], AccurateRip вернул [AE5D74C9]
Трек 11 точность не определена (достоверность 2) [FFE59D39], AccurateRip вернул [642F3310]

Ни один трек не прошёл проверки на точность
В вашей базе может быть иной вариант штамповки диска

Конец отчёта


Трекер:  [ 08-Июл-2011 23:57 ]

  

Скачать .torrent

Размер .torrent файла 23 KB


Размер: 292 MB
Хэш (hash) релиза: 465f5d488dcbb1424be7e82136cd2233ef082fa4

Еще никто не оставлял запись к записи скачать торрент Ночь страшного суда Judgment Night - 1993, FLAC . Будь первым!

!Обратная связь